<?xml version="1.0" standalone="no"?>
<!DOCTYPE svg PUBLIC "-//W3C//DTD SVG 1.1//EN" "http://www.w3.org/Graphics/SVG/1.1/DTD/svg11.dtd" >
<svg xmlns="http://www.w3.org/2000/svg" xmlns:xlink="http://www.w3.org/1999/xlink" version="1.1">
<metadata></metadata>
<defs>
<font id="roboto_condensedlight_italic" horiz-adv-x="976" >
<font-face units-per-em="2048" ascent="1536" descent="-512" />
<missing-glyph horiz-adv-x="456" />
<glyph unicode="&#xfb01;" horiz-adv-x="950" d="M95 0l171 982h-146l18 100h145l16 112q25 176 118.5 272.5t235.5 92.5q101 -3 228 -62l-31 -104q-96 54 -197 56q-208 0 -246 -273l-13 -94h202l-18 -100h-201l-170 -982h-112zM569 0l188 1082h111l-188 -1082h-111z" />
<glyph unicode="&#xfb02;" horiz-adv-x="964" d="M109 0l170 982h-144l17 100h145l19 132q24 172 109 260.5t216 85.5q78 -2 156 -23l153 -41l-256 -1496h-111l246 1423q-130 31 -189 31q-179 0 -215 -252l-17 -120h206l-18 -100h-205l-171 -982h-111z" />
<glyph unicode="&#xfb03;" horiz-adv-x="1438" d="M109 0l170 982h-144l17 100h145l19 139q24 165 108 253t212 86q44 0 111 -19l-20 -102q-51 14 -90 14q-174 0 -211 -249l-18 -122h363l15 107q26 182 119.5 277t235.5 93q103 -2 228 -62l-31 -104q-99 55 -199 55q-207 0 -245 -272l-13 -94h202l-17 -100h-202l-170 -982 h-111l171 982h-363l-171 -982h-111zM1057 0l188 1082h110l-188 -1082h-110z" />
<glyph unicode="&#xfb04;" horiz-adv-x="1438" d="M109 0l170 982h-144l17 100h145l19 133q23 166 105.5 256.5t214.5 88.5q47 0 111 -19l-20 -102q-51 14 -90 14q-174 0 -212 -256l-17 -115h363l19 132q24 170 108 259t216 87q81 -2 194 -32l115 -32l-256 -1496h-110l247 1422q-130 31 -190 31q-178 0 -215 -249l-18 -122 h207l-17 -100h-207l-170 -982h-111l171 982h-363l-171 -982h-111z" />
<glyph horiz-adv-x="0" />
<glyph horiz-adv-x="0" />
<glyph unicode="&#xd;" horiz-adv-x="456" />
<glyph horiz-adv-x="0" />
<glyph unicode=" "  horiz-adv-x="456" />
<glyph unicode="&#x09;" horiz-adv-x="456" />
<glyph unicode="&#xa0;" horiz-adv-x="456" />
<glyph unicode="!" horiz-adv-x="435" d="M52 71q2 31 23 56.5t54 26.5q35 1 53 -25t16 -58q-2 -31 -23.5 -55t-53.5 -25q-34 -1 -52.5 23.5t-16.5 56.5zM126 406l177 1050h115l-189 -1050h-103z" />
<glyph unicode="&#x22;" horiz-adv-x="580" d="M212 1081l75 455h97l-23 -146l-68 -309h-81zM440 1081l76 455h97l-23 -144l-68 -311h-82z" />
<glyph unicode="#" horiz-adv-x="1030" d="M60 410l17 95h217l144 437h-224l17 98h238l138 416h93l-138 -416h244l138 416h93l-137 -416h181l-17 -98h-197l-144 -437h204l-17 -95h-217l-135 -410h-94l135 410h-243l-135 -410h-92l135 410h-204zM387 505h243l144 437h-243z" />
<glyph unicode="$" d="M96 419h110q-13 -156 45 -243.5t172 -89.5q117 -2 199 78t95 202q10 99 -36.5 173t-162.5 131.5t-174.5 116.5t-83.5 132t-18 168q12 161 109 266.5t247 122.5l36 202h94l-36 -206q103 -19 163 -99.5t68 -203.5q5 -73 -2 -142h-109q5 52 1 111q-7 104 -56 165.5 t-134 64.5q-110 2 -184 -75t-88 -205q-10 -102 34.5 -172.5t166.5 -131t181 -122.5q109 -113 95 -293q-12 -161 -110 -264.5t-259 -123.5l-33 -189h-92l34 190q-144 20 -216.5 136t-55.5 301z" />
<glyph unicode="%" horiz-adv-x="1280" d="M202 1099l5 56q13 146 88 235.5t184 87.5q99 -3 154.5 -87t47.5 -215l-7 -67q-15 -141 -89 -227t-180 -83q-99 2 -156 87.5t-47 212.5zM239 175l774 1132l63 -51l-772 -1135zM292 1097q-6 -99 26 -153t93 -56q67 -2 113.5 54.5t60.5 155.5l7 79q9 89 -22.5 149.5 t-96.5 62.5q-69 2 -116 -58t-58 -155zM654 279l6 64q13 140 86.5 228.5t182.5 86.5q102 -3 157.5 -89.5t45.5 -211.5l-7 -78q-15 -135 -90 -219.5t-179 -81.5q-101 2 -156.5 89.5t-45.5 211.5zM742 277q-8 -90 23 -150t96 -62q70 -2 118 59.5t58 162.5t7 140 q-5 64 -36.5 102.5t-83.5 39.5q-70 2 -117 -57t-58 -154z" />
<glyph unicode="&#x26;" horiz-adv-x="1077" d="M79 364q10 111 80.5 213.5t213.5 207.5l13 9q-98 196 -85 343q14 153 99 247.5t216 92.5q112 -4 174.5 -85t54.5 -194q-13 -166 -198 -315l-128 -103l243 -453q92 144 121 325h99q-32 -248 -166 -419l124 -233h-124l-74 140q-163 -163 -342 -160q-155 2 -245.5 110.5 t-75.5 273.5zM191 364q-15 -119 44 -198.5t170 -81.5q121 -3 243 107l42 40l-251 469l-7 12l-26 -22q-194 -165 -215 -326zM409 1070q10 -91 63 -204l122 100q135 113 144 233q7 74 -29.5 123.5t-101.5 51.5q-64 0 -111.5 -42.5t-71 -117t-15.5 -144.5z" />
<glyph unicode="'" horiz-adv-x="348" d="M190 1089q54 308 76 447h101l-23 -145l-63 -302h-91z" />
<glyph unicode="(" horiz-adv-x="588" d="M109 213q-6 180 21 356l2 16q58 375 195.5 647.5t339.5 401.5l17 -85q-146 -118 -249 -321t-159.5 -472.5t-62.5 -505.5l-1 -71q3 -396 169 -569l-34 -79q-109 99 -170.5 270.5t-67.5 411.5z" />
<glyph unicode=")" horiz-adv-x="599" d="M-106 -390q281 232 400 762q63 282 69 542q10 449 -168 641l33 77q111 -102 171.5 -276t67.5 -407q6 -279 -64 -580t-196 -515t-295 -325z" />
<glyph unicode="*" horiz-adv-x="853" d="M114 1109l47 100l303 -124l61 371h104l-72 -368l333 125l14 -109l-344 -114l167 -295l-89 -60l-155 303l-249 -299l-78 67l261 297z" />
<glyph unicode="+" horiz-adv-x="992" d="M84 627l20 115h349l81 464h112l-81 -464h356l-21 -115h-354l-84 -481h-113l84 481h-349z" />
<glyph unicode="," horiz-adv-x="390" d="M-83 -217q107 123 133 248l28 159h116l-23 -145q-29 -188 -179 -320z" />
<glyph unicode="-" horiz-adv-x="523" d="M54 590l18 103h395l-18 -103h-395z" />
<glyph unicode="." horiz-adv-x="484" d="M51 73q2 35 27.5 60t60.5 26q37 1 59.5 -24.5t20.5 -61.5q-3 -35 -28.5 -58t-60.5 -24q-38 0 -60.5 25t-18.5 57z" />
<glyph unicode="/" horiz-adv-x="716" d="M-88 -125l771 1581h103l-769 -1581h-105z" />
<glyph unicode="0" d="M110 348q-7 127 15 274l43 281q51 297 165 437.5t290 136.5q127 -3 200.5 -93.5t84.5 -270.5q6 -107 -13 -261l-40 -257q-54 -333 -170.5 -477t-291.5 -138q-262 7 -283 368zM214 397q0 -309 187 -315q124 -6 208 104t125 346l53 337q16 122 16 196q0 298 -188 308 q-124 6 -208 -101.5t-125 -341.5l-47 -303q-21 -137 -21 -230z" />
<glyph unicode="1" d="M258 1158l22 121l436 182h22l-250 -1461h-111l226 1305z" />
<glyph unicode="2" d="M34 0l16 100l467 535l88 104q157 188 176 342q15 128 -36.5 208.5t-155.5 83.5q-120 3 -201.5 -87t-107.5 -249l-108 -1q23 193 139 319t284 122q101 -2 173 -52t105 -136.5t23 -196.5q-20 -192 -216 -425l-492 -564h614l-16 -103h-752z" />
<glyph unicode="3" d="M71 394h109q-7 -84 17 -155.5t77 -112.5t129 -43q126 -4 207.5 83t95.5 234q13 132 -48.5 208.5t-186.5 80.5l-110 1l17 104l98 -2q131 2 217 83.5t98 208.5q12 132 -40 209.5t-157 80.5q-114 2 -191.5 -78.5t-101.5 -220.5l-107 -1q22 178 134 292.5t273 110.5 q154 -4 235.5 -116.5t65.5 -280.5q-9 -110 -76.5 -198.5t-177.5 -139.5q93 -41 135 -129.5t33 -208.5q-10 -121 -66.5 -220t-149 -153.5t-204.5 -50.5q-105 2 -182.5 56.5t-114.5 148.5t-28 209z" />
<glyph unicode="4" d="M33 366l10 71l719 1019h123l-172 -986h182l-18 -104h-181l-64 -366h-111l64 366h-552zM183 470h420l140 805l-40 -61z" />
<glyph unicode="5" d="M125 384l104 -1q0 -145 56 -221.5t158 -79.5q126 -5 206 100t97 288q14 156 -40.5 252t-163.5 99q-72 2 -127.5 -25.5t-106.5 -75.5l-88 28l167 708h601l-18 -114h-503l-122 -488q102 81 223 79q133 -2 208 -98.5t83 -259.5q6 -156 -43.5 -299t-148 -222t-230.5 -75 q-151 4 -234 116.5t-78 288.5z" />
<glyph unicode="6" d="M110 400q-3 84 26 268q60 383 230.5 587.5t437.5 211.5h38l-12 -107h-20q-201 -2 -336.5 -140.5t-213.5 -430.5q129 171 306 167q126 -2 201.5 -99.5t81.5 -269.5q6 -158 -50 -306.5t-153 -227t-219 -74.5q-96 3 -166.5 55t-108.5 150t-42 216zM221 428q-2 -92 22 -174.5 t73 -126t118 -44.5q135 -5 220.5 137.5t85.5 335.5q0 136 -51 214t-147 82q-100 2 -190 -70.5t-114 -163.5q-17 -138 -17 -190z" />
<glyph unicode="7" d="M152 0l713 1352h-667l17 104h784l-9 -69l-718 -1387h-120z" />
<glyph unicode="8" d="M77 378q11 124 83.5 220.5t199.5 152.5q-54 36 -87 93q-56 96 -45 228q15 178 125.5 293.5t274.5 111.5q148 -4 230 -113.5t66 -273.5q-23 -233 -251 -347q86 -51 127.5 -142.5t32.5 -205.5q-17 -186 -137 -303t-296 -113q-160 4 -249 115t-74 284zM187 377 q-14 -129 46.5 -211t173.5 -84q129 -4 216 87t100 226q12 127 -48.5 212t-170.5 89q-124 4 -214 -88.5t-103 -230.5zM339 1073q-12 -120 42 -196.5t150 -78.5q112 -4 191.5 82.5t90.5 210.5q12 117 -42 198t-151 84q-111 4 -190 -82.5t-91 -217.5z" />
<glyph unicode="9" d="M160 856q-6 156 51.5 309.5t154 233.5t223.5 78q152 -4 231.5 -123t76.5 -337q-1 -94 -28 -264q-59 -379 -222.5 -568.5t-429.5 -195.5h-42l13 106h34q199 4 328 134.5t202 433.5q-142 -193 -313 -186q-83 1 -146 48.5t-97 137t-36 193.5zM269 888q0 -143 51.5 -224 t141.5 -83q94 -4 192 75.5t123 180.5l12 159q7 172 -45.5 272t-160.5 104q-139 5 -226.5 -144t-87.5 -340z" />
<glyph unicode=":" horiz-adv-x="410" d="M37 73q2 35 27.5 60t60.5 26q37 1 59.5 -24.5t20.5 -61.5q-3 -35 -28.5 -58t-60.5 -24q-38 0 -60.5 25t-18.5 57zM198 995q2 35 27.5 60t60.5 26q37 1 59.5 -24.5t20.5 -61.5q-3 -35 -28.5 -58t-60.5 -24q-38 0 -60.5 25t-18.5 57z" />
<glyph unicode=";" horiz-adv-x="380" d="M-81 -217q107 123 133 248l28 159h116l-23 -145q-29 -188 -179 -320zM187 995q2 35 27.5 60t60.5 26q37 1 59.5 -24.5t20.5 -61.5q-3 -35 -28.5 -58t-60.5 -24q-38 0 -60.5 25t-18.5 57z" />
<glyph unicode="&#x3c;" horiz-adv-x="901" d="M82 611l17 98l742 379l-25 -136l-611 -300l508 -299l-22 -122z" />
<glyph unicode="=" horiz-adv-x="970" d="M107 417l20 108h683l-20 -108h-683zM179 828l19 108h683l-19 -108h-683z" />
<glyph unicode="&#x3e;" horiz-adv-x="915" d="M56 226l24 133l624 303l-521 301l22 120l627 -379l-18 -98z" />
<glyph unicode="?" horiz-adv-x="812" d="M176 1115q25 168 124.5 267t241.5 95q135 -4 204 -107t53 -260q-16 -177 -177 -347l-106 -105q-89 -94 -118 -253l-100 -1q13 107 53.5 190t133.5 176t132 153q82 125 71 276q-7 78 -46.5 122.5t-108.5 47.5q-95 2 -160 -65.5t-90 -187.5zM219 71q2 31 22 56.5t54 26.5 q31 0 51 -23.5t18 -59.5q-3 -31 -24 -55t-53 -25q-35 -1 -52.5 23.5t-15.5 56.5z" />
<glyph unicode="@" horiz-adv-x="1568" d="M77 272q15 307 140 583.5t316 423t423 142.5q173 -3 291.5 -89t171 -249.5t42.5 -363.5q-13 -223 -69 -393.5t-146.5 -260.5t-207.5 -86q-74 2 -121 52t-49 137q-121 -193 -262 -190q-170 3 -170 269q0 177 67 365t166 284.5t220 92.5q70 -2 120 -31.5t96 -78.5 l-131 -569q-9 -55 -9 -95q-5 -147 91 -150q118 -5 197 131.5t112 396.5q21 164 11 286q-17 219 -126.5 331.5t-299.5 115.5q-201 4 -367 -124t-279.5 -374.5t-132.5 -527.5q-14 -185 26.5 -340.5t140 -237.5t249.5 -83q141 -2 286 77l19 -82q-130 -89 -309 -87 q-170 1 -289.5 90t-173 259t-43.5 376zM535 220q7 -138 100 -143q75 -5 144 66.5t104 181.5l124 527q-49 43 -113 46q-106 4 -186.5 -89.5t-130 -276.5t-42.5 -312z" />
<glyph unicode="A" horiz-adv-x="1099" d="M-64 0l703 1456h106l197 -1456h-114l-51 407h-527l-192 -407h-122zM300 514h463l-96 776z" />
<glyph unicode="B" horiz-adv-x="1074" d="M62 0l252 1456l351 -1q171 -3 259 -101q75 -83 75 -220q0 -25 -3 -51q-11 -117 -75 -199.5t-170 -127.5q88 -32 133 -124q37 -75 37 -171q0 -21 -2 -43q-16 -192 -136.5 -305t-303.5 -113h-417zM193 106l286 -1q135 0 223 85t105 227q3 24 3 47q0 91 -42 152 q-52 76 -165 82l-307 1zM314 804l252 -2q129 0 215 75t100 210q3 23 3 45q0 90 -44 144q-54 68 -178 71l-253 1z" />
<glyph unicode="C" horiz-adv-x="1133" d="M121 442v14q0 61 8 120l50 312q43 278 185 436q138 154 345 153h13q186 -5 280 -130q83 -111 82 -298q0 -24 -1 -49h-115q1 21 1 40q1 158 -57 238q-64 88 -197 91h-13q-156 0 -262 -120q-110 -125 -147 -364l-51 -331l-6 -82q-1 -20 -1 -39q0 -83 21 -157 q26 -91 85 -139t146 -51q12 -1 23 0q134 0 220 76q94 84 146 291l109 1q-46 -237 -175 -358q-124 -116 -315 -116h-16q-155 4 -247.5 109t-108.5 296z" />
<glyph unicode="D" horiz-adv-x="1142" d="M62 0l252 1456l326 -1q219 -5 329 -165q85 -124 85 -306q0 -53 -7 -111l-43 -279q-43 -279 -200 -435t-394 -159h-348zM193 106l207 -1q199 0 327 128t164 361l44 283q7 52 7 102q0 34 -3 67q-14 141 -92 219t-210 82l-228 1z" />
<glyph unicode="E" horiz-adv-x="997" d="M62 0l252 1456h739l-19 -108h-625l-95 -545h549l-19 -106h-548l-103 -591h631l-19 -106h-743z" />
<glyph unicode="F" horiz-adv-x="984" d="M61 0l253 1456h738l-19 -108h-624l-98 -562h544l-19 -108h-543l-118 -678h-114z" />
<glyph unicode="G" horiz-adv-x="1189" d="M131 426v25q0 58 7 115l58 364q46 261 185 406q134 140 341 140h14q179 -4 276 -118q91 -106 91 -288v-26l-112 1v9q0 154 -65 232q-68 79 -196 82h-14q-155 0 -259 -108q-109 -114 -148 -333l-57 -362q-7 -52 -8 -107v-14q0 -162 70 -256q72 -99 208 -101h11 q173 0 312 120l67 379h-310l20 107h423l-85 -524q-74 -91 -192 -141q-112 -48 -241 -48h-10q-178 2 -279 121.5t-107 324.5z" />
<glyph unicode="H" horiz-adv-x="1231" d="M61 0l253 1456h114l-114 -653h661l113 653h115l-253 -1456h-115l122 697h-661l-121 -697h-114z" />
<glyph unicode="I" horiz-adv-x="495" d="M82 0l253 1456h113l-253 -1456h-113z" />
<glyph unicode="J" horiz-adv-x="967" d="M52 401h114q-3 -31 -3 -61q0 -25 2 -50q9 -96 59.5 -149t138.5 -56h7q114 0 194 91q82 94 106 256l174 1024h115l-175 -1023q-29 -209 -146 -335q-112 -120 -271 -120h-13q-161 5 -241 119q-65 92 -65 234q0 34 4 70z" />
<glyph unicode="K" horiz-adv-x="1100" d="M61 0l253 1456h114l-134 -766l189 198l530 568h150l-611 -654l388 -802h-129l-345 716l-202 -199l-89 -517h-114z" />
<glyph unicode="L" horiz-adv-x="932" d="M62 0l252 1456h115l-235 -1350h583l-19 -106h-696z" />
<glyph unicode="M" horiz-adv-x="1495" d="M61 0l253 1456h146l206 -1275l650 1275h152l-253 -1456h-114l110 634l117 615l-645 -1249h-87l-212 1257l-99 -625l-110 -632h-114z" />
<glyph unicode="N" horiz-adv-x="1234" d="M61 0l253 1456h111l452 -1244l216 1244h113l-253 -1456h-110l-451 1242l-216 -1242h-115z" />
<glyph unicode="O" horiz-adv-x="1182" d="M116 431v14q0 63 8 125l48 303q46 297 192 453q141 151 348 150h13q117 -3 201 -57.5t127.5 -159t45.5 -236.5v-14q0 -63 -8 -125l-51 -319q-32 -194 -109 -327t-188 -197q-106 -61 -239 -61h-12q-175 4 -274 122.5t-102 328.5zM230 462v-27q0 -155 64 -245 q70 -98 205 -102h13q156 0 262 112q110 116 149 344l54 344q7 52 9 108v15q0 165 -65 256q-68 95 -204 99h-13q-163 0 -270 -122q-111 -127 -148 -364l-50 -325z" />
<glyph unicode="P" horiz-adv-x="1081" d="M61 0l253 1456l404 -1q176 -5 264 -121q74 -97 73 -247q0 -29 -2 -59q-18 -202 -143 -319.5t-326 -117.5l-306 1l-103 -592h-114zM296 699l293 -2q144 0 239 89t112 241q3 30 3 57q0 102 -47 171q-60 87 -182 92l-305 1z" />
<glyph unicode="Q" horiz-adv-x="1182" d="M113 433v14q0 62 8 123l47 302q46 295 190 452q141 152 349 152h13q117 -3 201.5 -57.5t128 -158.5t45.5 -236v-14q0 -64 -8 -126l-56 -350l-20 -90q-72 -279 -283 -403l174 -222l-85 -74l-198 252q-68 -16 -135 -16q-173 2 -270.5 122.5t-100.5 329.5zM226 462v-15 q0 -169 67 -260q70 -95 202 -99h13q157 0 262 112q110 118 151 352l52 336q7 53 9 108v15q0 171 -66 259q-69 92 -204 96h-13q-163 0 -269 -122q-111 -127 -148 -364l-51 -334z" />
<glyph unicode="R" horiz-adv-x="1102" d="M59 0l253 1456l380 -1q175 -6 267 -120q76 -94 76 -238q0 -30 -3 -62q-14 -146 -97 -252.5t-214 -153.5l188 -616l-1 -13h-122l-177 606h-330l-105 -606h-115zM297 712l289 -2q136 2 225.5 93.5t106.5 232.5q3 27 3 53q1 99 -47 167q-60 84 -185 91l-281 1z" />
<glyph unicode="S" horiz-adv-x="1037" d="M69 416h112q-2 -24 -3 -46q0 -116 62 -191q73 -90 215 -94h7q129 0 222 74q96 76 112 207q3 21 3 40q0 80 -44 140q-54 74 -212.5 137.5t-235.5 147.5q-86 93 -86 224q0 18 2 36q13 169 141 279q124 107 297 106h13q172 -4 268 -128q82 -105 83 -254q0 -26 -3 -54h-114 q3 26 3 50q0 110 -53 184q-64 90 -192 94h-7q-129 0 -217 -76q-92 -78 -105 -199q-2 -16 -2 -31q1 -79 49 -140q58 -72 202 -128t220 -129q107 -102 107 -257q0 -19 -2 -40q-15 -174 -145 -284q-126 -106 -304 -105h-13q-186 5 -292 127q-91 105 -91 257q0 26 3 53z" />
<glyph unicode="T" horiz-adv-x="1045" d="M189 1348l20 108h916l-19 -108h-401l-234 -1348h-115l234 1348h-401z" />
<glyph unicode="U" horiz-adv-x="1143" d="M124 429l175 1027h113l-174 -1028q-4 -35 -4 -67q0 -113 50 -182q64 -89 201 -93h18q137 0 229 85q96 91 121 257l174 1028h115l-175 -1026q-30 -216 -161 -336q-125 -115 -310 -115h-19q-124 2 -209.5 58.5t-121.5 158.5q-26 72 -26 159q0 36 4 74z" />
<glyph unicode="V" horiz-adv-x="1084" d="M179 1456h116l171 -1274v-17l6 17l568 1274h129l-670 -1456h-107z" />
<glyph unicode="W" horiz-adv-x="1542" d="M203 1456h113l46 -1063l-1 -204l74 201l419 1066h102l82 -1075l8 -196l70 214l374 1057h118l-529 -1456h-108l-87 1139l-6 124l-47 -128l-447 -1135h-109z" />
<glyph unicode="X" horiz-adv-x="1074" d="M-34 0l522 744l-276 712h127l228 -612l420 612h141l-506 -724l284 -732h-129l-236 631l-434 -631h-141z" />
<glyph unicode="Y" horiz-adv-x="1048" d="M188 1456h127l211 -789l489 789h136l-587 -915l-94 -541h-114l97 555z" />
<glyph unicode="Z" horiz-adv-x="1047" d="M-13 0l18 101l911 1248h-676l19 107h813l-17 -97l-914 -1253h723l-19 -106h-858z" />
<glyph unicode="[" horiz-adv-x="457" d="M6 -312l308 1976h280l-17 -104h-168l-277 -1768h170l-17 -104h-279z" />
<glyph unicode="\" horiz-adv-x="711" d="M207 1456h103l220 -1581h-102z" />
<glyph unicode="]" horiz-adv-x="457" d="M-124 -312l17 104h170l276 1768h-170l17 104h280l-309 -1976h-281z" />
<glyph unicode="^" horiz-adv-x="743" d="M98 729l371 727h81l117 -727h-101l-80 562l-277 -562h-111z" />
<glyph unicode="_" horiz-adv-x="775" d="M-103 -103l19 103h726l-18 -103h-727z" />
<glyph unicode="`" horiz-adv-x="577" d="M249 1536h134l142 -281h-100z" />
<glyph unicode="a" horiz-adv-x="945" d="M52 276q11 164 136 259.5t315 95.5l184 -1l22 152q2 20 2 39q-1 73 -35 119q-44 58 -147 59h-6q-95 0 -163 -57q-70 -59 -91 -158l-109 1q20 140 126 230q104 88 248 88h6q144 -2 218 -88q62 -72 62 -190q0 -22 -2 -46l-91 -552q-9 -56 -9 -108l2 -107l-2 -12h-114 q-2 19 -2 37.5t2 37.5l9 75q-130 -171 -303 -171h-8q-128 3 -194 85q-57 72 -57 179q0 16 1 33zM166 285q-2 -17 -1 -32q1 -69 33 -113q40 -52 124 -55h7q89 1 165 49q80 50 132 139l45 264l-154 1q-151 0 -245 -67.5t-106 -185.5z" />
<glyph unicode="b" d="M38 0l267 1536h110l-113 -605q112 171 284 171h8q144 -4 212 -108q61 -95 61 -257q0 -17 -1 -34q-4 -88 -23 -219q-37 -253 -141 -381q-101 -123 -260 -123h-13q-87 2 -153 43.5t-101 122.5l-34 -146h-103zM195 263q51 -171 220 -177h12q248 0 304 375l17 133q9 85 9 143 q0 16 -1 30q-8 119 -56 173.5t-135 56.5h-7q-170 0 -273 -196z" />
<glyph unicode="c" horiz-adv-x="911" d="M71 361v13q0 90 25 248q38 241 155 363q112 117 283 117h14q146 -4 222 -106q68 -91 68 -243q0 -18 -1 -36h-107q1 19 1 37q0 108 -42 169q-49 71 -149 76h-12q-260 0 -320 -376l-21 -160l-5 -72l-1 -32v-7q0 -262 209 -270h11q207 0 267 252h104q-28 -162 -132 -260 q-100 -95 -244 -95h-12q-149 2 -230.5 101t-82.5 281z" />
<glyph unicode="d" horiz-adv-x="979" d="M84 381q1 80 22 223q38 254 142 378q100 119 262 119h13q179 -6 247 -165l108 600h111l-267 -1536h-103l26 138q-111 -159 -281 -159h-8q-136 2 -206 106q-66 97 -66 271v25zM195 316q10 -228 189 -231h7q157 0 266 167l94 563q-50 174 -213 181h-11q-260 0 -311 -406 l-13 -102q-9 -84 -8 -142q-1 -16 0 -30z" />
<glyph unicode="e" horiz-adv-x="919" d="M88 470l12 100q31 254 153 396q118 137 294 136h12q131 -4 204.5 -85.5t82.5 -224.5q2 -28 2 -56q0 -56 -7 -110l-13 -95h-619l-10 -62q-6 -44 -7 -90q0 -20 2 -41q5 -115 64 -184t161 -72h9q74 0 136 30q64 32 122 86l52 -76q-121 -142 -317 -142h-11q-175 2 -261 136 q-67 103 -67 259q0 45 6 95zM217 635h515l5 30q5 38 5 78q0 17 -1 35q-5 100 -54 158.5t-135 62.5h-13q-116 1 -197 -85q-85 -90 -125 -279z" />
<glyph unicode="f" horiz-adv-x="607" d="M109 0l170 982h-144l17 100h145l19 132q24 171 108 260q82 86 206 86h6q47 -2 111 -20l-20 -101q-46 13 -90 14q-174 0 -212 -256l-17 -115h206l-18 -100h-205l-171 -982h-111z" />
<glyph unicode="g" d="M11 -277l61 78q94 -126 231 -130h13q119 0 192 73q77 76 100 224l32 166q-114 -155 -279 -155h-8q-135 2 -206 105q-65 95 -65 267v30q1 82 22 224q37 252 141 377q100 120 262 120h13q88 -3 152 -47t97 -125l36 152h103l-189 -1108q-28 -200 -136 -306 q-103 -100 -263 -100h-15q-84 2 -164.5 44t-129.5 111zM192 317q10 -229 189 -232h7q163 0 267 171l92 555q-48 178 -211 185h-12q-251 0 -309 -384l-16 -124q-8 -79 -8 -134q0 -20 1 -37z" />
<glyph unicode="h" horiz-adv-x="965" d="M38 0l267 1536h111l-116 -624q132 190 299 190h5q210 -4 229 -262l2 -45l-6 -91l-118 -704h-109l117 706l5 65v18q0 205 -154 209h-5q-88 0 -171 -72q-86 -74 -117 -174l-128 -752h-111z" />
<glyph unicode="i" horiz-adv-x="428" d="M50 0l188 1082h111l-188 -1082h-111zM276 1394q5 66 77 83q68 -12 69 -73q0 -5 -1 -10q-4 -64 -77 -82q-68 12 -68 75v7z" />
<glyph unicode="j" horiz-adv-x="433" d="M-234 -419l13 101q43 -14 74 -16h4q136 0 170 199l207 1217h111l-206 -1211q-21 -156 -93 -235q-70 -76 -179 -76h-8q-37 1 -93 21zM272 1394q2 33 24 58t51 25q31 0 51 -23q17 -20 17 -53v-7q-2 -31 -23 -56t-54 -26q-34 0 -51 24.5t-15 57.5z" />
<glyph unicode="k" horiz-adv-x="871" d="M38 0l267 1536h111l-168 -967l100 106l397 407h146l-454 -463l293 -619h-123l-251 539l-135 -129l-71 -410h-112z" />
<glyph unicode="l" horiz-adv-x="428" d="M50 0l267 1536h111l-267 -1536h-111z" />
<glyph unicode="m" horiz-adv-x="1524" d="M34 0l188 1082h106l-33 -162q122 182 297 182h8q95 -2 156.5 -53.5t76.5 -145.5q133 199 318 199h6q118 -2 179 -81t61 -224l-5 -92l-118 -705h-111l118 707q4 40 4 83v17q-2 90 -43.5 140t-118.5 51h-5q-100 0 -182 -82q-84 -84 -106 -212l-121 -704h-111l119 716 q4 40 4 81v17l-2 24q-19 155 -161 160h-5q-91 0 -169 -70q-80 -72 -110 -174l-129 -754h-111z" />
<glyph unicode="n" horiz-adv-x="966" d="M38 0l188 1082h106l-35 -172q131 193 302 193h5q204 -4 228 -250l3 -58l-6 -91l-118 -704h-109l117 706l5 65v18q0 205 -155 209h-5q-87 0 -170 -72q-86 -74 -117 -174l-128 -752h-111z" />
<glyph unicode="o" horiz-adv-x="985" d="M81 368v19q1 79 21 217q24 154 85 267t155 174q90 58 207 58h11q147 -4 229 -107.5t85 -282.5v-16q0 -87 -20 -218q-36 -237 -156 -371q-116 -129 -289 -129h-13q-135 4 -216.5 93t-96.5 256zM192 398v-15q0 -137 52 -215q54 -82 160 -86h12q122 0 206 94q88 100 120 294 l17 127l5 85v15q0 134 -52 214q-54 84 -160 88h-11q-127 0 -214 -107q-91 -112 -117 -310l-16 -127z" />
<glyph unicode="p" d="M-34 -416l260 1498l102 1l-29 -148q117 167 286 167h8q254 -4 271 -330l1 -69q-5 -101 -25 -232q-38 -250 -142 -373q-100 -118 -256 -118h-13q-83 2 -150 39t-105 112l-98 -547h-110zM192 245q54 -157 216 -163h12q247 0 309 372l18 139q8 81 8 137q0 20 -1 37 q-15 227 -194 230h-7q-80 0 -147 -45q-69 -48 -118 -135z" />
<glyph unicode="q" horiz-adv-x="983" d="M85 380q1 75 19 210q34 258 140 388q103 124 269 124h13q177 -6 247 -161l34 141h104l-260 -1498h-112l102 542q-114 -146 -274 -146h-9q-137 2 -208 104q-65 95 -65 266v30zM197 315q5 -115 54 -173t136 -60h8q155 0 260 159l98 585q-55 165 -211 173h-12 q-250 0 -309 -380q-25 -164 -25 -266q0 -20 1 -38z" />
<glyph unicode="r" horiz-adv-x="610" d="M38 0l188 1082h109l-35 -162q107 185 260 185h11q23 -1 70 -15l-16 -110q-45 8 -68 8h-5q-89 0 -167 -66q-80 -68 -109 -174l-127 -748h-111z" />
<glyph unicode="s" horiz-adv-x="897" d="M53 296l111 -1v-14q0 -89 49 -141q53 -56 154 -57q99 0 168 52t80 139q1 10 1 20q0 97 -133 174l-57 31l-100 56q-155 91 -155 233q0 9 1 18q7 126 106 212q97 84 235 84h7q142 -4 220 -92q69 -78 69 -194q0 -15 -1 -31h-110q1 10 1 20q0 80 -45 132q-50 58 -140 60h-7 q-87 0 -150 -50q-66 -52 -77 -137q-1 -9 -1 -17q0 -88 111 -152l175 -97q162 -96 161 -246v-18q-9 -136 -112 -220q-98 -80 -239 -80h-13q-144 2 -232 88q-79 78 -78 200q0 14 1 28z" />
<glyph unicode="t" horiz-adv-x="586" d="M101 982l17 100h162l49 276h110l-48 -276h179l-17 -100h-179l-120 -720l-4 -53q0 -5 -1 -11q0 -106 79 -108l78 7l-7 -100q-43 -15 -89 -15h-11q-74 1 -113 50.5t-43 137.5q-1 16 -1 32q0 32 3 62l118 718h-162z" />
<glyph unicode="u" horiz-adv-x="966" d="M102 297l5 92l116 693h110l-116 -696q-4 -36 -4 -77v-17q0 -94 38 -149.5t109 -57.5h12q91 1 169 55q83 58 110 149l136 793h111l-187 -1082h-108l28 128q-110 -149 -286 -149h-9q-112 2 -173 82t-61 236z" />
<glyph unicode="v" horiz-adv-x="853" d="M126 1082h109l119 -903l399 903h117l-497 -1082h-88z" />
<glyph unicode="w" horiz-adv-x="1306" d="M153 1082h103l46 -836l-4 -61l24 66l358 831h93l70 -829v-72l26 74l324 827h117l-446 -1082h-92l-77 860v27l-8 -28l-373 -859h-95z" />
<glyph unicode="x" horiz-adv-x="864" d="M-41 0l399 557l-212 525h122l161 -435l297 435h136l-386 -537l222 -545h-122l-169 452l-313 -452h-135z" />
<glyph unicode="y" horiz-adv-x="841" d="M-84 -424l12 101l50 -8h9q122 0 199 154l86 192l-144 1067h117l104 -894l405 894h122l-585 -1256q-61 -144 -131 -206q-70 -60 -155 -60h-3q-30 0 -86 16z" />
<glyph unicode="z" horiz-adv-x="864" d="M-15 0l17 96l679 881h-512l18 105h650l-17 -97l-683 -882h564l-19 -103h-697z" />
<glyph unicode="{" horiz-adv-x="602" d="M66 541l12 106q194 10 229 251l32 234q26 183 112 298t239 169l15 -82q-212 -85 -254 -385l-34 -242q-34 -214 -203 -298q49 -33 76.5 -92t29.5 -129l-3 -86l-34 -260l-3 -75q0 -202 141 -270l-31 -81q-98 42 -153 123.5t-64 195.5q-6 70 2 142l31 226q5 45 4 89 q-7 156 -144 166z" />
<glyph unicode="|" horiz-adv-x="448" d="M35 -270l270 1726h101l-270 -1726h-101z" />
<glyph unicode="}" horiz-adv-x="602" d="M-115 -321q213 87 255 380l32 234q32 222 210 306q-105 63 -112 220l1 68l37 280l4 77q0 205 -141 272l31 79q96 -40 152 -123t64 -198q5 -72 -4 -142l-30 -228q-5 -45 -3 -88q4 -154 143 -165l-12 -106q-194 -10 -230 -252l-32 -240q-49 -352 -345 -458z" />
<glyph unicode="~" horiz-adv-x="1190" d="M111 449q19 156 95 249t190 91q105 -3 202 -110l68 -81q60 -68 124 -68q143 -3 187 235l87 1q-16 -154 -91.5 -250.5t-188.5 -94.5q-102 3 -192 99l-78 91q-58 67 -123 69q-146 3 -183 -230z" />
<glyph unicode="&#xa1;" horiz-adv-x="424" d="M-13 -359l188 1048h102l-175 -1048h-115zM205 1021q2 31 23 56t54 26q33 0 52 -24.5t17 -57.5q-2 -31 -23 -56.5t-55 -26.5q-31 0 -50.5 23.5t-17.5 59.5z" />
<glyph unicode="&#xa2;" horiz-adv-x="958" d="M99 359q-5 191 43.5 355.5t145.5 262.5t231 121l42 220h111l-43 -222q118 -26 178 -129.5t51 -249.5h-106q5 128 -46.5 203.5t-145.5 78.5q-100 3 -176 -61.5t-122.5 -195t-54.5 -310.5q-7 -165 44 -255.5t160 -94.5q98 -3 171.5 63.5t105.5 188.5l104 1 q-26 -141 -117 -234.5t-232 -117.5l-43 -228h-111l45 232q-111 27 -171 124.5t-64 247.5z" />
<glyph unicode="&#xa3;" horiz-adv-x="1005" d="M-7 0l19 105l73 -1q91 43 120 219l45 321h-149l19 107h146l39 282q29 210 138 329t263 114q139 -3 213.5 -110t57.5 -278h-113q11 135 -35.5 207t-139.5 75q-106 3 -177.5 -86.5t-94.5 -260.5l-37 -272h278l-19 -107h-275l-38 -273q-24 -169 -104 -267l610 2l-19 -106 h-820z" />
<glyph unicode="&#xa4;" horiz-adv-x="1447" d="M12 68l182 155q-79 182 -53 378q31 230 196 407l-132 173l94 84l130 -169q190 142 390 138q97 -2 186.5 -37.5t158.5 -104.5l197 173l73 -96l-196 -169q86 -186 58 -386q-27 -216 -184 -390l129 -168l-94 -84l-124 159q-192 -155 -403 -151q-101 2 -193.5 40t-161.5 112 l-180 -158zM252 599q-17 -129 26.5 -247.5t134.5 -187.5t214 -73q151 -4 286 86t212.5 247t61.5 314q-11 107 -62 195t-132.5 136.5t-181.5 51.5q-133 4 -255 -66t-204 -194t-100 -262z" />
<glyph unicode="&#xa5;" horiz-adv-x="912" d="M60 324l16 90h283l36 202h-284l16 91h252l-191 749h122l164 -705l410 705h133l-454 -749h247l-16 -91h-286l-35 -202h286l-16 -90h-285l-57 -324h-114l57 324h-284z" />
<glyph unicode="&#xa6;" horiz-adv-x="441" d="M2 -270l134 772h120l-135 -772h-119zM170 698l132 758h119l-132 -758h-119z" />
<glyph unicode="&#xa7;" horiz-adv-x="1061" d="M-2 -64l110 2q-16 -146 51 -236.5t195 -92.5q120 -4 210.5 66.5t106.5 192.5q10 91 -39 155t-192 118.5t-211 108.5t-99.5 125.5t-22.5 167.5q15 197 228 286q-87 79 -95 204q-11 135 46.5 236.5t162 155.5t228.5 51q172 -4 259.5 -122t67.5 -309h-110q9 92 -13.5 165.5 t-77 116.5t-133.5 45q-129 2 -216.5 -68.5t-100.5 -188.5q-12 -95 38.5 -162t202.5 -124.5t222 -119.5q117 -103 101 -270q-10 -107 -74.5 -176.5t-161.5 -107.5q118 -100 102 -285q-16 -170 -136.5 -270t-298.5 -96q-180 4 -274.5 120.5t-75.5 311.5zM218 545 q-20 -162 144 -243l48 -22l165 -66q98 20 159 77.5t72 144.5q21 162 -165 250l-49 22l-159 63q-91 -18 -147.5 -75t-67.5 -151z" />
<glyph unicode="&#xa8;" horiz-adv-x="865" d="M256 1395q2 34 26 58t59 25t57.5 -23.5t19.5 -59.5q-2 -34 -26.5 -57t-58.5 -24q-35 0 -57 23t-20 58zM681 1394q2 34 26 58t59 25t57 -23.5t20 -59.5q-2 -34 -26.5 -57t-58.5 -24q-35 0 -57 23t-20 58z" />
<glyph unicode="&#xa9;" horiz-adv-x="1598" d="M135 722q22 197 135.5 374.5t289.5 280.5t373 99q179 -2 321 -100.5t212 -274t47 -366.5q-25 -206 -142.5 -384.5t-291.5 -277t-363 -94.5q-184 4 -324 102.5t-210 274.5t-47 366zM219 563q14 -141 82.5 -255.5t177 -177.5t238.5 -64q195 -4 369 113.5t269.5 316 t74.5 399.5q-16 142 -84.5 254.5t-175 174t-238.5 64.5q-145 3 -281.5 -62t-242 -188t-155.5 -275.5t-34 -299.5zM485 679l8 79q19 188 122 298.5t253 108.5q137 -4 208.5 -87.5t60.5 -226.5h-98q9 105 -35 162.5t-140 59.5q-107 2 -180 -80.5t-89 -224.5l-10 -90 q-13 -130 35.5 -210t145.5 -83q199 -7 240 220l94 1q-20 -155 -109.5 -237t-228.5 -78q-139 3 -215 111.5t-62 276.5z" />
<glyph unicode="&#xaa;" horiz-adv-x="788" d="M201 901q5 111 86 175.5t216 64.5l110 -1l9 63l3 59q-4 113 -96 116q-134 6 -166 -141l-101 7q16 106 89 170.5t183 62.5q101 -2 151 -79.5t38 -197.5l-53 -342l-5 -63l1 -91l-97 -1v46l2 46q-86 -105 -188 -105q-87 0 -136.5 58.5t-45.5 152.5zM303 905q-5 -54 20.5 -87 t82.5 -33q80 0 169 100l29 172l-99 1q-91 -2 -143 -43.5t-59 -109.5z" />
<glyph unicode="&#xab;" horiz-adv-x="813" d="M103 527l2 20l303 379h101l-296 -396l153 -382h-85zM359 527l2 20l303 379h101l-296 -396l153 -382h-85z" />
<glyph unicode="&#xac;" horiz-adv-x="962" d="M131 668l19 109h668l-68 -392h-112l50 283h-557z" />
<glyph unicode="&#xad;" horiz-adv-x="523" d="M54 590l18 103h395l-18 -103h-395z" />
<glyph unicode="&#xae;" horiz-adv-x="1603" d="M130 722q25 207 140 382t289.5 275.5t368.5 96.5q177 -2 319.5 -99.5t214 -273.5t48.5 -368q-18 -151 -89 -292.5t-183 -248t-248.5 -162.5t-278.5 -53q-184 4 -324 102.5t-210 274.5t-47 366zM214 563q14 -141 82.5 -255.5t177.5 -177.5t238 -64q145 -3 279.5 61 t239.5 185.5t157.5 274.5t36.5 309q-14 139 -82 252t-176 175t-240 65q-194 4 -368 -111.5t-270.5 -313.5t-74.5 -400zM502 321l132 839l244 -1q133 -5 201.5 -66.5t61.5 -173.5q-10 -133 -165 -208q82 -41 91 -141l-1 -61q-10 -76 -9 -109l2 -63l-2 -16h-98q-5 36 -3 72 l6 72l5 44q7 75 -20.5 113.5t-104.5 42.5l-187 1l-55 -345h-98zM669 758l170 -1q82 2 140.5 45t67.5 115q20 150 -170 151l-159 1z" />
<glyph unicode="&#xaf;" horiz-adv-x="770" d="M246 1342l16 98h515l-16 -98h-515z" />
<glyph unicode="&#xb0;" horiz-adv-x="761" d="M249 1217q4 106 82.5 184t179.5 76q92 -2 153.5 -73t57.5 -169q-4 -105 -80 -182t-178 -75q-96 2 -157.5 72t-57.5 167zM339 1219q-6 -62 31 -105.5t96 -43.5q65 0 113 48.5t54 114.5q6 63 -30 107.5t-95 44.5q-66 0 -114.5 -49t-54.5 -117z" />
<glyph unicode="&#xb1;" horiz-adv-x="934" d="M29 0l17 103h683l-16 -103h-684zM107 726l17 104h333l69 437h102l-69 -437h315l-17 -104h-314l-68 -437h-102l69 437h-335z" />
<glyph unicode="&#xb2;" horiz-adv-x="654" d="M106 665l14 81l278 279l47 50q86 94 95 172q7 60 -19.5 95.5t-78.5 35.5q-128 0 -163 -161l-95 -1q16 115 87 184t172 67q93 0 148.5 -61t49.5 -159q-7 -110 -128 -234l-62 -63l-204 -196h347l-16 -89h-472z" />
<glyph unicode="&#xb3;" horiz-adv-x="654" d="M131 885h96q-3 -61 27.5 -101t95.5 -41q68 0 112.5 42t50.5 106q12 131 -141 133l-57 1l8 81h64q69 2 116 42t52 101q6 56 -22 92t-86 36q-62 0 -99.5 -37.5t-52.5 -92.5h-97q15 101 84 161.5t165 58.5q94 0 152 -59t52 -156q-9 -120 -145 -188q107 -44 100 -176 q-6 -104 -79 -170t-182 -64q-102 2 -161 65.5t-53 165.5z" />
<glyph unicode="&#xb4;" horiz-adv-x="569" d="M217 1255l230 281h151l-268 -281h-113z" />
<glyph unicode="&#xb5;" horiz-adv-x="981" d="M-27 -416l260 1498h110l-105 -633q-11 -82 -9 -148q5 -216 151 -219q95 -4 175 55t107 161l134 784h111l-188 -1082h-100l26 144q-105 -169 -268 -165q-143 4 -201 123l-94 -518h-109z" />
<glyph unicode="&#xb6;" horiz-adv-x="846" d="M163 980q21 211 150.5 344t324.5 133l201 -1l-253 -1456h-111l91 520l-79 1q-169 7 -257 134t-67 325z" />
<glyph unicode="&#xb7;" horiz-adv-x="463" d="M169 717q2 36 25.5 61t53.5 25q34 0 53.5 -24t17.5 -62q-2 -32 -23.5 -57t-56.5 -26t-53.5 24.5t-16.5 58.5z" />
<glyph unicode="&#xb8;" horiz-adv-x="456" d="M-65 -357q76 3 124.5 36.5t55.5 90.5q10 75 -72 93l-49 9l42 128h85l-21 -66q112 -26 107 -162q-5 -96 -77.5 -150.5t-194.5 -59.5v81z" />
<glyph unicode="&#xb9;" horiz-adv-x="654" d="M232 1253l18 98l282 103l16 1l-130 -790h-102l115 656z" />
<glyph unicode="&#xba;" horiz-adv-x="802" d="M207 1020l1 13l7 77q15 167 102 269t213 98q115 -3 176.5 -99t48.5 -246l-10 -99q-20 -157 -103 -252t-208 -92q-114 3 -174.5 95t-52.5 236zM308 952q4 -77 38.5 -121.5t94.5 -45.5q80 -3 135 65t69 193l10 90l1 80q-3 72 -37.5 118t-95.5 49q-79 2 -132.5 -62 t-69.5 -179l-12 -108z" />
<glyph unicode="&#xbb;" horiz-adv-x="809" d="M30 161l295 396l-152 387h87l178 -382l-3 -21l-303 -380h-102zM294 161l295 396l-152 387h87l178 -382l-3 -21l-303 -380h-102z" />
<glyph unicode="&#xbc;" horiz-adv-x="1260" d="M218 1252l18 98l282 103l16 1l-130 -790h-102l115 656zM222 183l774 1132l61 -51l-772 -1135zM578 186l6 68l409 535h105l-89 -513h101l-16 -90h-101l-33 -186h-96l33 186h-319zM693 276h219l71 377l-31 -46z" />
<glyph unicode="&#xbd;" horiz-adv-x="1317" d="M186 183l774 1132l61 -51l-772 -1135zM207 1252l18 98l282 103l16 1l-130 -790h-102l115 656zM622 0l14 81l278 279l47 50q86 94 95 172q7 60 -19.5 95.5t-78.5 35.5q-128 0 -163 -161l-95 -1q16 115 87 184t172 67q93 0 148.5 -61t49.5 -159q-7 -110 -128 -234l-62 -63 l-204 -196h347l-16 -89h-472z" />
<glyph unicode="&#xbe;" horiz-adv-x="1345" d="M170 885h96q-3 -61 27.5 -101t95.5 -41q68 0 112.5 42t50.5 106q12 131 -141 133l-57 1l8 81h64q69 2 116 42t52 101q6 56 -22 92t-86 36q-62 0 -99.5 -37.5t-52.5 -92.5h-97q15 101 84 161.5t165 58.5q94 0 152 -59t52 -156q-9 -120 -145 -188q107 -44 100 -176 q-6 -104 -79 -170t-182 -64q-102 2 -161 65.5t-53 165.5zM337 183l774 1132l61 -51l-772 -1135zM667 186l6 68l409 535h105l-89 -513h101l-16 -90h-101l-33 -186h-96l33 186h-319zM782 276h219l71 377l-31 -46z" />
<glyph unicode="&#xbf;" horiz-adv-x="819" d="M-7 -18q11 109 71.5 215t199.5 237q48 45 77 101t47 152l103 2q-14 -112 -53.5 -188t-115.5 -152l-75 -80q-160 -175 -142 -377q7 -77 49 -122t113 -46q91 -3 157 65t89 190h108q-26 -173 -123.5 -270t-239.5 -93q-138 4 -209.5 105t-55.5 261zM424 1021q3 31 24 55.5 t53 25.5q33 0 51.5 -23.5t16.5 -57.5q-2 -31 -22.5 -56.5t-53.5 -26.5q-35 -1 -53 25t-16 58z" />
<glyph unicode="&#xc0;" horiz-adv-x="1099" d="M-64 0l703 1456h106l197 -1456h-114l-51 407h-527l-192 -407h-122zM300 514h463l-96 776zM509 1851h134l142 -281h-100z" />
<glyph unicode="&#xc1;" horiz-adv-x="1099" d="M-64 0l703 1456h106l197 -1456h-114l-51 407h-527l-192 -407h-122zM300 514h463l-96 776zM641 1570l230 281h151l-268 -281h-113z" />
<glyph unicode="&#xc2;" horiz-adv-x="1099" d="M-64 0l703 1456h106l197 -1456h-114l-51 407h-527l-192 -407h-122zM300 514h463l-96 776zM487 1573l1 13l233 255h68l162 -257l-1 -12l-98 1l-100 180l-167 -179z" />
<glyph unicode="&#xc3;" horiz-adv-x="1099" d="M-64 0l703 1456h106l197 -1456h-114l-51 407h-527l-192 -407h-122zM300 514h463l-96 776zM443 1591q13 98 61.5 157.5t121.5 57.5q35 0 61.5 -18t51 -39t50.5 -38t59 -17q79 0 109 121l77 -5q-13 -100 -60.5 -158.5t-121.5 -58.5q-49 0 -111.5 56.5t-109.5 56.5 q-66 -3 -96 -85l-11 -33z" />
<glyph unicode="&#xc4;" horiz-adv-x="1099" d="M-64 0l703 1456h106l197 -1456h-114l-51 407h-527l-192 -407h-122zM300 514h463l-96 776zM446 1710q2 34 26 58t59 25t57.5 -23.5t19.5 -59.5q-2 -34 -26.5 -57t-58.5 -24q-35 0 -57 23t-20 58zM871 1709q2 34 26 58t59 25t57 -23.5t20 -59.5q-2 -34 -26.5 -57t-58.5 -24 q-35 0 -57 23t-20 58z" />
<glyph unicode="&#xc5;" horiz-adv-x="1099" d="M-64 0l703 1456h106l197 -1456h-114l-51 407h-527l-192 -407h-122zM300 514h463l-96 776zM555 1708q2 81 60 141t141 60q74 0 125.5 -54t49.5 -131q-2 -80 -60.5 -138t-140.5 -58q-75 0 -126 51.5t-49 128.5zM632 1710q-4 -48 23.5 -78.5t71.5 -30.5q47 0 84.5 35 t43.5 86q4 49 -23 81t-73 32q-48 0 -85.5 -37.5t-41.5 -87.5z" />
<glyph unicode="&#xc6;" horiz-adv-x="1576" d="M-81 0l971 1456h724l-19 -104h-565l-76 -542h481l-18 -104h-476l-85 -603h573l-18 -103h-679l54 388h-472l-253 -388h-142zM387 503h415l113 809z" />
<glyph unicode="&#xc7;" horiz-adv-x="1133" d="M121 442q-1 68 8 134l50 312q43 277 185.5 435.5t357.5 153.5q186 -5 279.5 -130t81.5 -347h-115q8 189 -56.5 277.5t-196.5 91.5q-164 5 -274.5 -120t-147.5 -364l-51 -331l-6 -82q-6 -105 20 -196t85 -139t146 -51q149 -7 243 76.5t146 290.5l109 1q-46 -237 -175 -358 t-331 -116q-155 4 -247.5 109t-108.5 296zM324 -366q76 3 124.5 36.5t55.5 90.5q10 75 -72 93l-49 9l42 128h85l-21 -66q112 -26 107 -162q-5 -96 -77.5 -150.5t-194.5 -59.5v81z" />
<glyph unicode="&#xc8;" horiz-adv-x="997" d="M62 0l252 1456h739l-19 -108h-625l-95 -545h549l-19 -106h-548l-103 -591h631l-19 -106h-743zM487 1857h134l142 -281h-100z" />
<glyph unicode="&#xc9;" horiz-adv-x="997" d="M62 0l252 1456h739l-19 -108h-625l-95 -545h549l-19 -106h-548l-103 -591h631l-19 -106h-743zM619 1576l230 281h151l-268 -281h-113z" />
<glyph unicode="&#xca;" horiz-adv-x="997" d="M62 0l252 1456h739l-19 -108h-625l-95 -545h549l-19 -106h-548l-103 -591h631l-19 -106h-743zM465 1579l1 13l233 255h68l162 -257l-1 -12l-98 1l-100 180l-167 -179z" />
<glyph unicode="&#xcb;" horiz-adv-x="997" d="M62 0l252 1456h739l-19 -108h-625l-95 -545h549l-19 -106h-548l-103 -591h631l-19 -106h-743zM424 1716q2 34 26 58t59 25t57.5 -23.5t19.5 -59.5q-2 -34 -26.5 -57t-58.5 -24q-35 0 -57 23t-20 58zM849 1715q2 34 26 58t59 25t57 -23.5t20 -59.5q-2 -34 -26.5 -57 t-58.5 -24q-35 0 -57 23t-20 58z" />
<glyph unicode="&#xcc;" horiz-adv-x="495" d="M82 0l253 1456h113l-253 -1456h-113zM206 1857h134l142 -281h-100z" />
<glyph unicode="&#xcd;" horiz-adv-x="495" d="M82 0l253 1456h113l-253 -1456h-113zM337 1576l230 281h151l-268 -281h-113z" />
<glyph unicode="&#xce;" horiz-adv-x="495" d="M82 0l253 1456h113l-253 -1456h-113zM184 1579l1 13l233 255h68l162 -257l-1 -12l-98 1l-100 180l-167 -179z" />
<glyph unicode="&#xcf;" horiz-adv-x="495" d="M82 0l253 1456h113l-253 -1456h-113zM143 1716q2 34 26 58t59 25t57.5 -23.5t19.5 -59.5q-2 -34 -26.5 -57t-58.5 -24q-35 0 -57 23t-20 58zM568 1715q2 34 26 58t59 25t57 -23.5t20 -59.5q-2 -34 -26.5 -57t-58.5 -24q-35 0 -57 23t-20 58z" />
<glyph unicode="&#xd0;" horiz-adv-x="1172" d="M56 689l19 104h154l115 663l326 -1q219 -5 329 -165.5t78 -416.5l-43 -279q-43 -279 -200 -435t-394 -159h-348l119 689h-155zM223 106l207 -1q199 0 327 128t164 361l44 283q12 86 4 169q-14 141 -92 219t-210 82l-228 1l-97 -555h238l-18 -104h-238z" />
<glyph unicode="&#xd1;" horiz-adv-x="1234" d="M61 0l253 1456h111l452 -1244l216 1244h113l-253 -1456h-110l-451 1242l-216 -1242h-115zM507 1591q13 98 61.5 157.5t121.5 57.5q35 0 61.5 -18t51 -39t50.5 -38t59 -17q79 0 109 121l77 -5q-13 -100 -60.5 -158.5t-121.5 -58.5q-49 0 -111.5 56.5t-109.5 56.5 q-66 -3 -96 -85l-11 -33z" />
<glyph unicode="&#xd2;" horiz-adv-x="1182" d="M116 431q-1 70 8 139l48 303q47 297 192.5 452.5t360.5 150.5q117 -3 201 -57.5t127.5 -159t45.5 -236.5q1 -70 -8 -139l-51 -319q-32 -194 -109 -327t-188 -197t-251 -61q-175 4 -274 122.5t-102 328.5zM230 462q-6 -173 63.5 -271.5t205.5 -102.5q165 -5 274.5 111.5 t149.5 344.5l54 344q7 52 9 108q3 176 -65 271t-204 99q-172 5 -283 -122t-148 -364l-50 -325zM549 1862h134l142 -281h-100z" />
<glyph unicode="&#xd3;" horiz-adv-x="1182" d="M116 431q-1 70 8 139l48 303q47 297 192.5 452.5t360.5 150.5q117 -3 201 -57.5t127.5 -159t45.5 -236.5q1 -70 -8 -139l-51 -319q-32 -194 -109 -327t-188 -197t-251 -61q-175 4 -274 122.5t-102 328.5zM230 462q-6 -173 63.5 -271.5t205.5 -102.5q165 -5 274.5 111.5 t149.5 344.5l54 344q7 52 9 108q3 176 -65 271t-204 99q-172 5 -283 -122t-148 -364l-50 -325zM681 1581l230 281h151l-268 -281h-113z" />
<glyph unicode="&#xd4;" horiz-adv-x="1182" d="M116 431q-1 70 8 139l48 303q47 297 192.5 452.5t360.5 150.5q117 -3 201 -57.5t127.5 -159t45.5 -236.5q1 -70 -8 -139l-51 -319q-32 -194 -109 -327t-188 -197t-251 -61q-175 4 -274 122.5t-102 328.5zM230 462q-6 -173 63.5 -271.5t205.5 -102.5q165 -5 274.5 111.5 t149.5 344.5l54 344q7 52 9 108q3 176 -65 271t-204 99q-172 5 -283 -122t-148 -364l-50 -325zM527 1584l1 13l233 255h68l162 -257l-1 -12l-98 1l-100 180l-167 -179z" />
<glyph unicode="&#xd5;" horiz-adv-x="1182" d="M116 431q-1 70 8 139l48 303q47 297 192.5 452.5t360.5 150.5q117 -3 201 -57.5t127.5 -159t45.5 -236.5q1 -70 -8 -139l-51 -319q-32 -194 -109 -327t-188 -197t-251 -61q-175 4 -274 122.5t-102 328.5zM230 462q-6 -173 63.5 -271.5t205.5 -102.5q165 -5 274.5 111.5 t149.5 344.5l54 344q7 52 9 108q3 176 -65 271t-204 99q-172 5 -283 -122t-148 -364l-50 -325zM483 1602q13 98 61.5 157.5t121.5 57.5q35 0 61.5 -18t51 -39t50.5 -38t59 -17q79 0 109 121l77 -5q-13 -100 -60.5 -158.5t-121.5 -58.5q-49 0 -111.5 56.5t-109.5 56.5 q-66 -3 -96 -85l-11 -33z" />
<glyph unicode="&#xd6;" horiz-adv-x="1182" d="M116 431q-1 70 8 139l48 303q47 297 192.5 452.5t360.5 150.5q117 -3 201 -57.5t127.5 -159t45.5 -236.5q1 -70 -8 -139l-51 -319q-32 -194 -109 -327t-188 -197t-251 -61q-175 4 -274 122.5t-102 328.5zM230 462q-6 -173 63.5 -271.5t205.5 -102.5q165 -5 274.5 111.5 t149.5 344.5l54 344q7 52 9 108q3 176 -65 271t-204 99q-172 5 -283 -122t-148 -364l-50 -325zM486 1721q2 34 26 58t59 25t57.5 -23.5t19.5 -59.5q-2 -34 -26.5 -57t-58.5 -24q-35 0 -57 23t-20 58zM911 1720q2 34 26 58t59 25t57 -23.5t20 -59.5q-2 -34 -26.5 -57 t-58.5 -24q-35 0 -57 23t-20 58z" />
<glyph unicode="&#xd7;" horiz-adv-x="926" d="M22 191l354 363l-220 350l81 77l216 -346l338 346l61 -89l-341 -350l228 -363l-81 -76l-225 358l-349 -358z" />
<glyph unicode="&#xd8;" horiz-adv-x="1182" d="M33 -83l157 219q-84 165 -72 383q6 124 40.5 314.5t107.5 328.5q168 320 460 314q176 -4 283 -137l117 165h100l-170 -238q38 -112 43 -229q4 -123 -14 -239l-19 -123q-52 -332 -202.5 -516.5t-373.5 -179.5q-145 4 -249 96l-107 -158h-101zM227 445q0 -112 32 -202 l681 993q-72 125 -221 131q-177 5 -294.5 -148t-159.5 -425l-25 -164q-14 -98 -13 -185zM309 171q73 -79 189 -83q169 -5 284.5 135t161.5 398q42 237 46 358q3 85 -11 170z" />
<glyph unicode="&#xd9;" horiz-adv-x="1143" d="M124 429l175 1027h113l-174 -1028q-18 -160 46 -249t201 -93q151 -6 247.5 85t120.5 257l174 1028h115l-175 -1026q-30 -216 -161 -336.5t-329 -114.5q-124 2 -209.5 58.5t-122 158t-21.5 233.5zM534 1851h134l142 -281h-100z" />
<glyph unicode="&#xda;" horiz-adv-x="1143" d="M124 429l175 1027h113l-174 -1028q-18 -160 46 -249t201 -93q151 -6 247.5 85t120.5 257l174 1028h115l-175 -1026q-30 -216 -161 -336.5t-329 -114.5q-124 2 -209.5 58.5t-122 158t-21.5 233.5zM666 1570l230 281h151l-268 -281h-113z" />
<glyph unicode="&#xdb;" horiz-adv-x="1143" d="M124 429l175 1027h113l-174 -1028q-18 -160 46 -249t201 -93q151 -6 247.5 85t120.5 257l174 1028h115l-175 -1026q-30 -216 -161 -336.5t-329 -114.5q-124 2 -209.5 58.5t-122 158t-21.5 233.5zM512 1573l1 13l233 255h68l162 -257l-1 -12l-98 1l-100 180l-167 -179z " />
<glyph unicode="&#xdc;" horiz-adv-x="1143" d="M124 429l175 1027h113l-174 -1028q-18 -160 46 -249t201 -93q151 -6 247.5 85t120.5 257l174 1028h115l-175 -1026q-30 -216 -161 -336.5t-329 -114.5q-124 2 -209.5 58.5t-122 158t-21.5 233.5zM471 1710q2 34 26 58t59 25t57.5 -23.5t19.5 -59.5q-2 -34 -26.5 -57 t-58.5 -24q-35 0 -57 23t-20 58zM896 1709q2 34 26 58t59 25t57 -23.5t20 -59.5q-2 -34 -26.5 -57t-58.5 -24q-35 0 -57 23t-20 58z" />
<glyph unicode="&#xdd;" horiz-adv-x="1048" d="M188 1456h127l211 -789l489 789h136l-587 -915l-94 -541h-114l97 555zM612 1564l230 281h151l-268 -281h-113z" />
<glyph unicode="&#xde;" horiz-adv-x="1037" d="M60 0l253 1456h111l-53 -303l248 -1q162 -6 249 -117t72 -290q-16 -187 -140 -305t-309 -118l-263 1l-57 -323h-111zM245 427l250 -2q135 2 227 91.5t108 228.5q16 127 -41 212t-173 91l-263 1z" />
<glyph unicode="&#xdf;" horiz-adv-x="1029" d="M35 0l192 1127q29 204 122.5 313.5t236.5 104.5q119 -4 187 -87.5t57 -213.5q-5 -65 -41 -142l-86 -171q-27 -56 -35 -116l-2 -19q-6 -93 98 -225t105 -230l-1 -24q-10 -150 -111.5 -246t-240.5 -92q-155 2 -247 83l42 102q38 -38 90.5 -60.5t106.5 -22.5q97 -2 167.5 64 t83.5 170q7 57 -16.5 114.5t-82 131t-83 134t-18.5 121.5q5 48 22 92t59 120.5t59 119t22 90.5q10 84 -27.5 143t-107.5 63q-98 5 -162.5 -74.5t-86.5 -241.5l-191 -1128h-111z" />
<glyph unicode="&#xe0;" horiz-adv-x="945" d="M52 276q11 164 136 259.5t315 95.5l184 -1l22 152q11 100 -32.5 157.5t-147.5 59.5q-98 2 -168.5 -57t-91.5 -158l-109 1q20 140 126.5 230t253.5 88q144 -2 218 -88t60 -236l-91 -552q-9 -56 -9 -108l2 -107l-2 -12h-114q-4 38 0 75l9 75q-133 -175 -311 -171 q-128 2 -194 84.5t-56 212.5zM166 285q-9 -93 31.5 -145.5t124.5 -54.5q93 -2 172.5 48.5t131.5 139.5l45 264l-154 1q-151 0 -245 -67.5t-106 -185.5zM399 1536h134l142 -281h-100z" />
<glyph unicode="&#xe1;" horiz-adv-x="945" d="M52 276q11 164 136 259.5t315 95.5l184 -1l22 152q11 100 -32.5 157.5t-147.5 59.5q-98 2 -168.5 -57t-91.5 -158l-109 1q20 140 126.5 230t253.5 88q144 -2 218 -88t60 -236l-91 -552q-9 -56 -9 -108l2 -107l-2 -12h-114q-4 38 0 75l9 75q-133 -175 -311 -171 q-128 2 -194 84.5t-56 212.5zM166 285q-9 -93 31.5 -145.5t124.5 -54.5q93 -2 172.5 48.5t131.5 139.5l45 264l-154 1q-151 0 -245 -67.5t-106 -185.5zM531 1255l230 281h151l-268 -281h-113z" />
<glyph unicode="&#xe2;" horiz-adv-x="945" d="M52 276q11 164 136 259.5t315 95.5l184 -1l22 152q11 100 -32.5 157.5t-147.5 59.5q-98 2 -168.5 -57t-91.5 -158l-109 1q20 140 126.5 230t253.5 88q144 -2 218 -88t60 -236l-91 -552q-9 -56 -9 -108l2 -107l-2 -12h-114q-4 38 0 75l9 75q-133 -175 -311 -171 q-128 2 -194 84.5t-56 212.5zM166 285q-9 -93 31.5 -145.5t124.5 -54.5q93 -2 172.5 48.5t131.5 139.5l45 264l-154 1q-151 0 -245 -67.5t-106 -185.5zM377 1258l1 13l233 255h68l162 -257l-1 -12l-98 1l-100 180l-167 -179z" />
<glyph unicode="&#xe3;" horiz-adv-x="945" d="M52 276q11 164 136 259.5t315 95.5l184 -1l22 152q11 100 -32.5 157.5t-147.5 59.5q-98 2 -168.5 -57t-91.5 -158l-109 1q20 140 126.5 230t253.5 88q144 -2 218 -88t60 -236l-91 -552q-9 -56 -9 -108l2 -107l-2 -12h-114q-4 38 0 75l9 75q-133 -175 -311 -171 q-128 2 -194 84.5t-56 212.5zM166 285q-9 -93 31.5 -145.5t124.5 -54.5q93 -2 172.5 48.5t131.5 139.5l45 264l-154 1q-151 0 -245 -67.5t-106 -185.5zM333 1276q13 98 61.5 157.5t121.5 57.5q35 0 61.5 -18t51 -39t50.5 -38t59 -17q79 0 109 121l77 -5 q-13 -100 -60.5 -158.5t-121.5 -58.5q-49 0 -111.5 56.5t-109.5 56.5q-66 -3 -96 -85l-11 -33z" />
<glyph unicode="&#xe4;" horiz-adv-x="945" d="M52 276q11 164 136 259.5t315 95.5l184 -1l22 152q11 100 -32.5 157.5t-147.5 59.5q-98 2 -168.5 -57t-91.5 -158l-109 1q20 140 126.5 230t253.5 88q144 -2 218 -88t60 -236l-91 -552q-9 -56 -9 -108l2 -107l-2 -12h-114q-4 38 0 75l9 75q-133 -175 -311 -171 q-128 2 -194 84.5t-56 212.5zM166 285q-9 -93 31.5 -145.5t124.5 -54.5q93 -2 172.5 48.5t131.5 139.5l45 264l-154 1q-151 0 -245 -67.5t-106 -185.5zM336 1395q2 34 26 58t59 25t57.5 -23.5t19.5 -59.5q-2 -34 -26.5 -57t-58.5 -24q-35 0 -57 23t-20 58zM761 1394 q2 34 26 58t59 25t57 -23.5t20 -59.5q-2 -34 -26.5 -57t-58.5 -24q-35 0 -57 23t-20 58z" />
<glyph unicode="&#xe5;" horiz-adv-x="945" d="M52 276q11 164 136 259.5t315 95.5l184 -1l22 152q11 100 -32.5 157.5t-147.5 59.5q-98 2 -168.5 -57t-91.5 -158l-109 1q20 140 126.5 230t253.5 88q144 -2 218 -88t60 -236l-91 -552q-9 -56 -9 -108l2 -107l-2 -12h-114q-4 38 0 75l9 75q-133 -175 -311 -171 q-128 2 -194 84.5t-56 212.5zM166 285q-9 -93 31.5 -145.5t124.5 -54.5q93 -2 172.5 48.5t131.5 139.5l45 264l-154 1q-151 0 -245 -67.5t-106 -185.5zM445 1393q2 81 60 141t141 60q74 0 125.5 -54t49.5 -131q-2 -80 -60.5 -138t-140.5 -58q-75 0 -126 51.5t-49 128.5z M522 1395q-4 -48 23.5 -78.5t71.5 -30.5q47 0 84.5 35t43.5 86q4 49 -23 81t-73 32q-48 0 -85.5 -37.5t-41.5 -87.5z" />
<glyph unicode="&#xe6;" horiz-adv-x="1459" d="M40 286q11 159 122 253t288 94l210 -1l12 89q5 45 3 93l-2 20q-20 160 -153 165q-103 2 -174 -61t-93 -172l-106 12q20 149 127.5 239t255.5 86q100 -4 165.5 -58t83.5 -146q142 207 323 204q123 -3 196.5 -84.5t85.5 -221.5q7 -82 -2 -160l-15 -101h-609l-5 -27l-8 -88 q-6 -156 52 -245.5t169 -91.5q82 -2 150.5 31.5t130.5 84.5l32 -90q-123 -133 -319 -129q-102 2 -180 54t-114 147q-66 -96 -162.5 -150.5t-214.5 -52.5q-123 2 -191.5 86.5t-57.5 220.5zM152 282q-9 -89 33.5 -144t127.5 -57q69 -2 141.5 36.5t137.5 113.5l52 303l-195 2 q-121 -2 -203 -71t-94 -183zM770 636h502q10 64 11 105q0 116 -47.5 185t-141.5 73q-106 4 -187 -82.5t-137 -280.5z" />
<glyph unicode="&#xe7;" horiz-adv-x="911" d="M71 361q-2 91 25 261q38 241 155 363t297 117q145 -5 221.5 -106.5t67.5 -278.5h-107q8 135 -41 206t-149 76q-271 9 -332 -376l-21 -160l-5 -72l-1 -32q-3 -269 209 -277q217 -7 278 252h104q-28 -162 -132.5 -260.5t-255.5 -94.5q-149 2 -230.5 101t-82.5 281z M219 -366q76 3 124.5 36.5t55.5 90.5q10 75 -72 93l-49 9l42 128h85l-21 -66q112 -26 107 -162q-5 -96 -77.5 -150.5t-194.5 -59.5v81z" />
<glyph unicode="&#xe8;" horiz-adv-x="919" d="M88 470l12 100q31 254 153 395.5t306 136.5q131 -4 204.5 -85.5t82.5 -224.5q5 -85 -5 -166l-13 -95h-619l-10 -62q-9 -64 -5 -131q5 -115 64 -184t161 -72q81 -2 145.5 30t121.5 86l52 -76q-124 -146 -328 -142q-175 3 -261 136.5t-61 353.5zM217 635h515l5 30 q7 55 4 113q-5 100 -54 158.5t-135 62.5q-125 5 -210 -85.5t-125 -278.5zM376 1536h134l142 -281h-100z" />
<glyph unicode="&#xe9;" horiz-adv-x="919" d="M88 470l12 100q31 254 153 395.5t306 136.5q131 -4 204.5 -85.5t82.5 -224.5q5 -85 -5 -166l-13 -95h-619l-10 -62q-9 -64 -5 -131q5 -115 64 -184t161 -72q81 -2 145.5 30t121.5 86l52 -76q-124 -146 -328 -142q-175 3 -261 136.5t-61 353.5zM217 635h515l5 30 q7 55 4 113q-5 100 -54 158.5t-135 62.5q-125 5 -210 -85.5t-125 -278.5zM508 1255l230 281h151l-268 -281h-113z" />
<glyph unicode="&#xea;" horiz-adv-x="919" d="M88 470l12 100q31 254 153 395.5t306 136.5q131 -4 204.5 -85.5t82.5 -224.5q5 -85 -5 -166l-13 -95h-619l-10 -62q-9 -64 -5 -131q5 -115 64 -184t161 -72q81 -2 145.5 30t121.5 86l52 -76q-124 -146 -328 -142q-175 3 -261 136.5t-61 353.5zM217 635h515l5 30 q7 55 4 113q-5 100 -54 158.5t-135 62.5q-125 5 -210 -85.5t-125 -278.5zM354 1258l1 13l233 255h68l162 -257l-1 -12l-98 1l-100 180l-167 -179z" />
<glyph unicode="&#xeb;" horiz-adv-x="919" d="M88 470l12 100q31 254 153 395.5t306 136.5q131 -4 204.5 -85.5t82.5 -224.5q5 -85 -5 -166l-13 -95h-619l-10 -62q-9 -64 -5 -131q5 -115 64 -184t161 -72q81 -2 145.5 30t121.5 86l52 -76q-124 -146 -328 -142q-175 3 -261 136.5t-61 353.5zM217 635h515l5 30 q7 55 4 113q-5 100 -54 158.5t-135 62.5q-125 5 -210 -85.5t-125 -278.5zM313 1395q2 34 26 58t59 25t57.5 -23.5t19.5 -59.5q-2 -34 -26.5 -57t-58.5 -24q-35 0 -57 23t-20 58zM738 1394q2 34 26 58t59 25t57 -23.5t20 -59.5q-2 -34 -26.5 -57t-58.5 -24q-35 0 -57 23 t-20 58z" />
<glyph unicode="&#xec;" horiz-adv-x="428" d="M49 0l188 1082h111l-189 -1082h-110zM117 1524h134l142 -281h-100z" />
<glyph unicode="&#xed;" horiz-adv-x="428" d="M49 0l188 1082h111l-189 -1082h-110zM248 1243l230 281h151l-268 -281h-113z" />
<glyph unicode="&#xee;" horiz-adv-x="428" d="M49 0l188 1082h111l-189 -1082h-110zM95 1246l1 13l233 255h68l162 -257l-1 -12l-98 1l-100 180l-167 -179z" />
<glyph unicode="&#xef;" horiz-adv-x="428" d="M49 0l188 1082h111l-189 -1082h-110zM54 1383q2 34 26 58t59 25t57.5 -23.5t19.5 -59.5q-2 -34 -26.5 -57t-58.5 -24q-35 0 -57 23t-20 58zM479 1382q2 34 26 58t59 25t57 -23.5t20 -59.5q-2 -34 -26.5 -57t-58.5 -24q-35 0 -57 23t-20 58z" />
<glyph unicode="&#xf0;" horiz-adv-x="1021" d="M120 458q23 224 139 368.5t292 139.5q77 -2 140.5 -38.5t105.5 -99.5q11 228 -90 407l-204 -138l-34 82l188 125q-92 102 -247 169l46 105q184 -74 297 -208l183 121l34 -83l-165 -106q113 -225 102 -504q-4 -95 -28.5 -260t-91 -300.5t-157 -198.5t-199.5 -60 q-107 3 -180.5 65.5t-108.5 174t-22 239.5zM231 337q10 -113 65.5 -181.5t146.5 -72.5q126 -5 211 121t114 345l10 78l6 63q-25 78 -81.5 122.5t-138.5 47.5q-106 4 -186 -67t-119.5 -201t-27.5 -255z" />
<glyph unicode="&#xf1;" horiz-adv-x="966" d="M38 0l188 1082h106l-35 -172q133 196 307 193q204 -4 228 -250l3 -58l-6 -91l-118 -704h-109l117 706l5 65q7 223 -155 227q-89 2 -175 -72t-117 -174l-128 -752h-111zM329 1275q13 98 61.5 157.5t121.5 57.5q35 0 61.5 -18t51 -39t50.5 -38t59 -17q79 0 109 121l77 -5 q-13 -100 -60.5 -158.5t-121.5 -58.5q-49 0 -111.5 56.5t-109.5 56.5q-66 -3 -96 -85l-11 -33z" />
<glyph unicode="&#xf2;" horiz-adv-x="985" d="M81 368q-3 81 20.5 235.5t85 267.5t156 174t217.5 58q147 -4 229 -107.5t85 -282.5q2 -91 -20 -234q-36 -238 -156.5 -371.5t-301.5 -128.5q-135 4 -216.5 93t-96.5 256zM192 398q-3 -148 51.5 -230t160.5 -86q130 -5 218.5 94.5t119.5 293.5l17 127l5 85 q3 145 -51.5 229t-160.5 88q-134 5 -225 -107t-117 -310l-16 -127zM381 1536h134l142 -281h-100z" />
<glyph unicode="&#xf3;" horiz-adv-x="985" d="M81 368q-3 81 20.5 235.5t85 267.5t156 174t217.5 58q147 -4 229 -107.5t85 -282.5q2 -91 -20 -234q-36 -238 -156.5 -371.5t-301.5 -128.5q-135 4 -216.5 93t-96.5 256zM192 398q-3 -148 51.5 -230t160.5 -86q130 -5 218.5 94.5t119.5 293.5l17 127l5 85 q3 145 -51.5 229t-160.5 88q-134 5 -225 -107t-117 -310l-16 -127zM513 1255l230 281h151l-268 -281h-113z" />
<glyph unicode="&#xf4;" horiz-adv-x="985" d="M81 368q-3 81 20.5 235.5t85 267.5t156 174t217.5 58q147 -4 229 -107.5t85 -282.5q2 -91 -20 -234q-36 -238 -156.5 -371.5t-301.5 -128.5q-135 4 -216.5 93t-96.5 256zM192 398q-3 -148 51.5 -230t160.5 -86q130 -5 218.5 94.5t119.5 293.5l17 127l5 85 q3 145 -51.5 229t-160.5 88q-134 5 -225 -107t-117 -310l-16 -127zM359 1258l1 13l233 255h68l162 -257l-1 -12l-98 1l-100 180l-167 -179z" />
<glyph unicode="&#xf5;" horiz-adv-x="985" d="M81 368q-3 81 20.5 235.5t85 267.5t156 174t217.5 58q147 -4 229 -107.5t85 -282.5q2 -91 -20 -234q-36 -238 -156.5 -371.5t-301.5 -128.5q-135 4 -216.5 93t-96.5 256zM192 398q-3 -148 51.5 -230t160.5 -86q130 -5 218.5 94.5t119.5 293.5l17 127l5 85 q3 145 -51.5 229t-160.5 88q-134 5 -225 -107t-117 -310l-16 -127zM315 1275q13 98 61.5 157.5t121.5 57.5q35 0 61.5 -18t51 -39t50.5 -38t59 -17q79 0 109 121l77 -5q-13 -100 -60.5 -158.5t-121.5 -58.5q-49 0 -111.5 56.5t-109.5 56.5q-66 -3 -96 -85l-11 -33z" />
<glyph unicode="&#xf6;" horiz-adv-x="985" d="M81 368q-3 81 20.5 235.5t85 267.5t156 174t217.5 58q147 -4 229 -107.5t85 -282.5q2 -91 -20 -234q-36 -238 -156.5 -371.5t-301.5 -128.5q-135 4 -216.5 93t-96.5 256zM192 398q-3 -148 51.5 -230t160.5 -86q130 -5 218.5 94.5t119.5 293.5l17 127l5 85 q3 145 -51.5 229t-160.5 88q-134 5 -225 -107t-117 -310l-16 -127zM318 1395q2 34 26 58t59 25t57.5 -23.5t19.5 -59.5q-2 -34 -26.5 -57t-58.5 -24q-35 0 -57 23t-20 58zM743 1394q2 34 26 58t59 25t57 -23.5t20 -59.5q-2 -34 -26.5 -57t-58.5 -24q-35 0 -57 23t-20 58z " />
<glyph unicode="&#xf7;" horiz-adv-x="998" d="M83 642l22 119h816l-21 -119h-817zM363 291q2 32 23 58t56 27q33 0 53 -24t18 -61q-2 -36 -26 -60t-54 -24q-36 0 -55 26.5t-15 57.5zM501 1088q2 36 25.5 61t53.5 25q34 0 53.5 -24t17.5 -62q-2 -32 -23.5 -57t-56.5 -26t-53.5 24.5t-16.5 58.5z" />
<glyph unicode="&#xf8;" horiz-adv-x="981" d="M49 -138l122 204q-100 124 -98 334q0 195 64.5 361.5t174.5 255.5t250 87q91 -1 171 -50l91 158h91l-124 -206q94 -130 91 -332q-5 -308 -142.5 -505t-348.5 -191q-83 1 -159 41l-94 -158zM180 430q-10 -155 46 -260l453 788q-55 39 -123 43q-100 3 -181.5 -64 t-133.5 -203t-61 -304zM284 114q52 -32 114 -34q142 -2 238 123.5t125 322.5q17 133 13 205q-7 97 -41 167z" />
<glyph unicode="&#xf9;" horiz-adv-x="966" d="M102 297l5 92l116 693h110l-116 -696q-5 -43 -4 -94q0 -94 38 -149.5t109 -57.5q98 -4 181 54.5t110 149.5l136 793h111l-187 -1082h-108l28 128q-113 -153 -295 -149q-112 2 -173 82t-61 236zM392 1536h134l142 -281h-100z" />
<glyph unicode="&#xfa;" horiz-adv-x="966" d="M102 297l5 92l116 693h110l-116 -696q-5 -43 -4 -94q0 -94 38 -149.5t109 -57.5q98 -4 181 54.5t110 149.5l136 793h111l-187 -1082h-108l28 128q-113 -153 -295 -149q-112 2 -173 82t-61 236zM524 1255l230 281h151l-268 -281h-113z" />
<glyph unicode="&#xfb;" horiz-adv-x="966" d="M102 297l5 92l116 693h110l-116 -696q-5 -43 -4 -94q0 -94 38 -149.5t109 -57.5q98 -4 181 54.5t110 149.5l136 793h111l-187 -1082h-108l28 128q-113 -153 -295 -149q-112 2 -173 82t-61 236zM370 1258l1 13l233 255h68l162 -257l-1 -12l-98 1l-100 180l-167 -179z" />
<glyph unicode="&#xfc;" horiz-adv-x="966" d="M102 297l5 92l116 693h110l-116 -696q-5 -43 -4 -94q0 -94 38 -149.5t109 -57.5q98 -4 181 54.5t110 149.5l136 793h111l-187 -1082h-108l28 128q-113 -153 -295 -149q-112 2 -173 82t-61 236zM329 1395q2 34 26 58t59 25t57.5 -23.5t19.5 -59.5q-2 -34 -26.5 -57 t-58.5 -24q-35 0 -57 23t-20 58zM754 1394q2 34 26 58t59 25t57 -23.5t20 -59.5q-2 -34 -26.5 -57t-58.5 -24q-35 0 -57 23t-20 58z" />
<glyph unicode="&#xfd;" horiz-adv-x="841" d="M-84 -424l12 101l50 -8q128 -6 208 154l86 192l-144 1067h117l104 -894l405 894h122l-585 -1256q-61 -144 -131.5 -205.5t-157.5 -60.5q-30 0 -86 16zM476 1255l230 281h151l-268 -281h-113z" />
<glyph unicode="&#xfe;" horiz-adv-x="991" d="M-30 -416l339 1952h110l-110 -592q122 163 289 159q137 -4 205 -119.5t61 -316.5l-8 -109l-3 -21q-38 -272 -147 -417.5t-273 -140.5q-173 4 -255 148l-98 -543h-110zM201 264q24 -84 78.5 -132t134.5 -50q120 -4 204 100.5t119 314.5l9 61q12 104 7 177 q-16 254 -189 261q-169 3 -275 -199z" />
<glyph unicode="&#xff;" horiz-adv-x="841" d="M-84 -424l12 101l50 -8q128 -6 208 154l86 192l-144 1067h117l104 -894l405 894h122l-585 -1256q-61 -144 -131.5 -205.5t-157.5 -60.5q-30 0 -86 16zM281 1395q2 34 26 58t59 25t57.5 -23.5t19.5 -59.5q-2 -34 -26.5 -57t-58.5 -24q-35 0 -57 23t-20 58zM706 1394 q2 34 26 58t59 25t57 -23.5t20 -59.5q-2 -34 -26.5 -57t-58.5 -24q-35 0 -57 23t-20 58z" />
<glyph unicode="&#x152;" horiz-adv-x="1613" d="M96 445q-1 73 9 137l46 292q44 277 186 440.5t350 163.5l56 -2l197 -20h693l-20 -108h-625l-95 -545h548l-19 -106h-547l-103 -591h631l-19 -106h-682l-194 -18h-58q-165 4 -258 129.5t-96 333.5zM207 475q-4 -108 21.5 -198.5t84 -139.5t142.5 -52q79 -3 200 11 l222 1263q-89 15 -194 17q-165 0 -274.5 -131.5t-147.5 -375.5l-46 -294z" />
<glyph unicode="&#x153;" horiz-adv-x="1585" d="M79 400q-1 53 8 150q21 164 91 296.5t167 195.5t215 60q112 -4 193 -74t108 -185q158 266 361 260q95 -2 155 -47q113 -85 130 -258q7 -81 -2 -159l-15 -103h-612l-5 -27q-6 -38 -7 -83q-3 -159 51.5 -248.5t156.5 -93.5q154 -6 281 117l39 -86q-124 -138 -326 -134 q-103 2 -185.5 71t-110.5 183q-73 -129 -170 -194t-208 -62q-147 4 -229.5 117t-85.5 304zM190 431q-7 -156 48.5 -250.5t163.5 -98.5q158 -6 257 157t107 406q2 95 -19.5 177.5t-71.5 128t-123 48.5q-139 5 -234 -125t-123 -357zM892 640h503q11 82 7 138 q-7 97 -56.5 157.5t-131.5 63.5q-103 4 -185 -84.5t-137 -274.5z" />
<glyph unicode="&#x178;" horiz-adv-x="1048" d="M188 1456h127l211 -789l489 789h136l-587 -915l-94 -541h-114l97 555zM417 1704q2 34 26 58t59 25t57.5 -23.5t19.5 -59.5q-2 -34 -26.5 -57t-58.5 -24q-35 0 -57 23t-20 58zM842 1703q2 34 26 58t59 25t57 -23.5t20 -59.5q-2 -34 -26.5 -57t-58.5 -24q-35 0 -57 23 t-20 58z" />
<glyph unicode="&#x2c6;" horiz-adv-x="779" d="M266 1258l1 13l233 255h68l162 -257l-1 -12l-98 1l-100 180l-167 -179z" />
<glyph unicode="&#x2dc;" horiz-adv-x="786" d="M210 1267q13 98 61.5 157.5t121.5 57.5q35 0 61.5 -18t51 -39t50.5 -38t59 -17q79 0 109 121l77 -5q-13 -100 -60.5 -158.5t-121.5 -58.5q-49 0 -111.5 56.5t-109.5 56.5q-66 -3 -96 -85l-11 -33z" />
<glyph unicode="&#x2000;" horiz-adv-x="954" />
<glyph unicode="&#x2001;" horiz-adv-x="1909" />
<glyph unicode="&#x2002;" horiz-adv-x="954" />
<glyph unicode="&#x2003;" horiz-adv-x="1909" />
<glyph unicode="&#x2004;" horiz-adv-x="636" />
<glyph unicode="&#x2005;" horiz-adv-x="477" />
<glyph unicode="&#x2006;" horiz-adv-x="318" />
<glyph unicode="&#x2007;" horiz-adv-x="318" />
<glyph unicode="&#x2008;" horiz-adv-x="238" />
<glyph unicode="&#x2009;" horiz-adv-x="381" />
<glyph unicode="&#x200a;" horiz-adv-x="106" />
<glyph unicode="&#x2010;" horiz-adv-x="523" d="M54 590l18 103h395l-18 -103h-395z" />
<glyph unicode="&#x2011;" horiz-adv-x="523" d="M54 590l18 103h395l-18 -103h-395z" />
<glyph unicode="&#x2012;" horiz-adv-x="523" d="M54 590l18 103h395l-18 -103h-395z" />
<glyph unicode="&#x2013;" horiz-adv-x="1137" d="M162 685l23 104h820l-23 -104h-820z" />
<glyph unicode="&#x2014;" horiz-adv-x="1339" d="M89 685l31 104h1092l-30 -104h-1093z" />
<glyph unicode="&#x2018;" horiz-adv-x="352" d="M187 1119l18 112q30 196 162 326l71 -59q-97 -126 -121 -265l-20 -114h-110z" />
<glyph unicode="&#x2019;" horiz-adv-x="352" d="M163 1152q98 132 121 265l21 119h109l-18 -120q-34 -191 -172 -320z" />
<glyph unicode="&#x201a;" horiz-adv-x="345" d="M-84 -179q93 126 119 254l23 129h110l-19 -121q-32 -185 -171 -317z" />
<glyph unicode="&#x201c;" horiz-adv-x="565" d="M189 1119l18 112q30 196 162 326l71 -59q-97 -126 -121 -265l-20 -114h-110zM403 1119l18 112q30 196 162 326l71 -59q-97 -126 -121 -265l-20 -114h-110z" />
<glyph unicode="&#x201d;" horiz-adv-x="570" d="M169 1152q98 132 121 265l21 119h109l-18 -120q-34 -191 -172 -320zM377 1152q98 132 121 265l21 119h109l-18 -120q-34 -191 -172 -320z" />
<glyph unicode="&#x201e;" horiz-adv-x="549" d="M-85 -188q97 132 122 274l27 151h110l-25 -153q-32 -193 -168 -329zM116 -188q97 132 122 280l25 145h110l-21 -141q-30 -201 -172 -341z" />
<glyph unicode="&#x2022;" horiz-adv-x="652" d="M164 711l1 35q6 83 59.5 134.5t133.5 51.5q77 0 122.5 -48.5t45.5 -127.5l-2 -37q-6 -82 -58 -131.5t-134 -49.5q-78 0 -123 48t-45 125z" />
<glyph unicode="&#x2026;" horiz-adv-x="1127" d="M66 73q2 35 27.5 60t60.5 26q37 1 59.5 -24.5t20.5 -61.5q-3 -35 -28.5 -58t-60.5 -24q-38 0 -60.5 25t-18.5 57zM403 73q2 35 27.5 60t60.5 26q37 1 59.5 -24.5t20.5 -61.5q-3 -35 -28.5 -58t-60.5 -24q-38 0 -60.5 25t-18.5 57zM726 73q2 35 27.5 60t60.5 26 q37 1 59.5 -24.5t20.5 -61.5q-3 -35 -28.5 -58t-60.5 -24q-38 0 -60.5 25t-18.5 57z" />
<glyph unicode="&#x202f;" horiz-adv-x="381" />
<glyph unicode="&#x2039;" horiz-adv-x="545" d="M98 545l2 20l303 379h101l-296 -396l153 -382h-85z" />
<glyph unicode="&#x203a;" horiz-adv-x="545" d="M16 161l295 396l-152 387h87l178 -382l-3 -21l-303 -380h-102z" />
<glyph unicode="&#x205f;" horiz-adv-x="477" />
<glyph unicode="&#x20ac;" d="M80 562l16 90h155l29 163h-156l16 92h151q49 278 186.5 425.5t343.5 145.5q79 -2 195 -33l-24 -111q-87 35 -175 37q-152 3 -255 -105t-156 -354l-2 -11l341 7l-17 -93h-335l-29 -163h337l-16 -90l-334 1l-2 -17q-7 -47 -8 -99q-6 -168 59.5 -263t189.5 -97q84 -2 185 32 l-2 -110q-95 -29 -189 -27q-166 2 -259.5 117.5t-94.5 315.5q-1 66 9 131l2 17z" />
<glyph unicode="&#x2122;" horiz-adv-x="1081" d="M243 1386l8 70h321l-9 -70h-130l-79 -467h-64l78 467h-125zM546 919l91 537h79l52 -423l201 423h82l-93 -537h-63l68 398l-187 -398h-44l-50 419l-72 -419h-64z" />
<glyph unicode="&#x25fc;" horiz-adv-x="1080" d="M0 0v1080h1080v-1080h-1080z" />
</font>
</defs>
</svg>
