<?xml version="1.0" standalone="no"?>
<!DOCTYPE svg PUBLIC "-//W3C//DTD SVG 1.1//EN" "http://www.w3.org/Graphics/SVG/1.1/DTD/svg11.dtd" >
<svg xmlns="http://www.w3.org/2000/svg" xmlns:xlink="http://www.w3.org/1999/xlink" version="1.1">
<metadata></metadata>
<defs>
<font id="kalamregular" horiz-adv-x="1245" >
<font-face units-per-em="2048" ascent="1638" descent="-410" />
<missing-glyph horiz-adv-x="821" />
<glyph unicode="&#xfb01;" horiz-adv-x="1081" d="M88 847q0 34 72.5 54.5t191.5 40.5q8 41 25 131q49 289 131 411t227 122q109 0 227.5 -99.5t118.5 -201t-51 -101.5q-37 0 -87 60.5t-104.5 121t-99.5 60.5q-104 0 -198 -426l-13 -53q256 33 388.5 32.5t132.5 -100.5q0 -55 -92.5 -347t-125 -405.5t-86.5 -113.5 q-31 0 -50 27.5t-19 63.5t34.5 170t82 307t65.5 253q-90 -4 -371 -53q-141 -590 -198 -711q-31 -63 -53.5 -63t-55.5 37.5t-33 64.5t23 104q98 330 143 537q-102 -18 -130.5 -18t-61.5 30.5t-33 64.5z" />
<glyph unicode="&#xfb02;" horiz-adv-x="1112" d="M96 885q0 49 144 63l69 10q33 170 53.5 331t93 239t168 78t143.5 -50.5t48 -124t-49 -73.5q-23 0 -50.5 44t-70.5 44t-70.5 -65.5t-48 -202t-30.5 -191.5q111 18 181.5 42t129.5 69q117 86 117 297t51 211q43 0 86 -43t43 -107q0 -160 -58.5 -502t-140.5 -632.5 t-137 -290.5q-33 0 -60.5 34.5t-27.5 71.5t37 158q123 418 160 676q-123 -106 -414 -154q-141 -719 -266 -751q-29 -6 -39 20q-14 6 -26.5 24.5t-8.5 42t58.5 244.5t92.5 396q-29 -2 -70.5 -2t-74.5 33.5t-33 60.5z" />
<glyph horiz-adv-x="0" />
<glyph horiz-adv-x="0" />
<glyph unicode="&#xd;" horiz-adv-x="821" />
<glyph unicode=" "  horiz-adv-x="821" />
<glyph unicode="&#x09;" horiz-adv-x="821" />
<glyph unicode="&#xa0;" horiz-adv-x="821" />
<glyph unicode="!" horiz-adv-x="759" d="M139 165q0 42 35 85t70 43t84 -99.5t49 -148.5q0 -14 -20.5 -32.5t-39.5 -18.5q-51 0 -114.5 64.5t-63.5 106.5zM291 586q-2 12 25.5 147t58.5 380t31 493q-1 53 32 53q39 0 106.5 -49t67.5 -78q0 -174 -89 -612.5t-142 -438.5q-33 0 -61.5 34t-28.5 71z" />
<glyph unicode="&#x22;" horiz-adv-x="677" d="M123 1199q0 15 18.5 187.5t18.5 307.5q0 39 24.5 39t67.5 -34t43 -54q0 -106 -32 -309t-70 -203q-23 0 -46.5 25.5t-23.5 40.5zM469 1199q0 15 18.5 187.5t18.5 307.5q0 39 29 39q23 0 64.5 -34t41.5 -54q0 -109 -30.5 -310.5t-71.5 -201.5q-20 0 -45 25.5t-25 40.5z" />
<glyph unicode="#" horiz-adv-x="1343" d="M111 387q0 51 233 90q86 346 111 461q-129 -23 -158 -23t-51.5 35t-22.5 66q0 57 269 96q41 211 40.5 281.5t7 84t36 13.5t82 -49t53.5 -108.5t-29 -196.5q182 16 272 20q33 174 33 239.5t7 80t37 14.5t82 -49t52 -104.5t-22 -172.5q37 2 88 2q129 0 129 -59 q0 -51 -248 -84q-43 -184 -123 -487q53 2 130 2t102.5 -14.5t25.5 -45t-67.5 -50t-231.5 -40.5l-33 -125q-74 -281 -131 -280q-27 0 -46 35.5t-19 76.5q-6 29 53 271q-76 -10 -145 -19q-104 -12 -152 -20q-76 -287 -110 -330q-37 -37 -76 27q-25 39 -25 92q-4 12 35 184 q-100 -14 -120.5 -14t-44 34.5t-23.5 65.5zM524 502q133 14 289 24q76 305 111 473q-170 -20 -279 -34q-27 -113 -121 -463z" />
<glyph unicode="$" horiz-adv-x="1093" d="M47 307q0 76 43 76q23 0 66 -45t103 -93t128 -55q16 66 129 453q-135 94 -209 167t-74 137.5t17.5 122.5t42.5 83q129 129 430 209q41 127 71.5 181t70.5 53t40 -72q0 -49 -28 -135h26q59 0 96 -58.5t37 -116.5q0 -33 -28 -32q-12 0 -43 9t-59.5 9t-90.5 -8 q-82 -262 -135 -451q143 -102 225 -190t82 -184q2 -147 -158.5 -245.5t-361.5 -109.5q-55 -158 -92 -157q-20 0 -33 18q-23 37 4 147q-127 27 -213 119t-86 168zM406 983q0 -49 159 -162q16 57 94 332q-109 -37 -181 -84t-72 -86zM524 199q123 16 202 62t79 113.5 t-176 192.5q-61 -219 -105 -368z" />
<glyph unicode="%" horiz-adv-x="1822" d="M197 907q0 190 119.5 354t258.5 164q47 0 91 -24q86 -53 169 -59.5t216 47t236.5 110.5t127 57t56 -55t27.5 -100t-71.5 -145.5t-220 -306.5t-373 -517t-280.5 -387t-82.5 -73t-43 35t-19.5 56.5t40.5 88t126 189.5t170.5 245q168 238 500 710q-197 -117 -381 -102 q-23 0 -71 12q14 -63 14 -112q0 -176 -125 -324.5t-268 -148.5q-88 0 -152.5 89t-64.5 197zM360 922q0 -55 22.5 -97.5t59.5 -42.5q59 0 132 93.5t73 188.5t-25.5 148.5t-58.5 53.5q-59 0 -131 -114t-72 -230zM1051 307q0 190 119.5 354t256.5 164q98 0 165 -103.5 t67 -229.5q0 -176 -125 -324t-268 -148q-86 0 -150.5 89.5t-64.5 197.5zM1212 322q0 -57 22.5 -98.5t61.5 -41.5q59 0 131 93.5t72 188.5t-25.5 148.5t-58.5 53.5q-59 0 -131 -114t-72 -230z" />
<glyph unicode="&#x26;" horiz-adv-x="1441" d="M31 257q0 85 360 378q10 10 16.5 14t15.5 12.5t17 14.5q-74 180 -73.5 334.5t113 269.5t284.5 115q131 0 187.5 -79t56.5 -175q0 -182 -375 -506q53 -115 127 -211q84 57 219 156q264 190 291 190q63 0 63 -68q0 -39 -135 -157.5t-319 -243.5q136 -115 286 -115 q100 0 137 -10t37 -39q0 -96 -197.5 -96t-389.5 178q-328 -201 -486 -201q-80 0 -157.5 77t-77.5 162zM211 228.5q0 -21.5 16.5 -36t40.5 -14.5q106 0 367 166q-63 78 -125 186q-250 -209 -274.5 -244.5t-24.5 -57zM547 996.5q0 -99.5 31 -205.5q248 219 247 333 q0 49 -25.5 82t-76.5 33q-76 0 -126 -71.5t-50 -171z" />
<glyph unicode="'" horiz-adv-x="296" d="M125 1200q0 14 23.5 188.5t23.5 305.5q0 39 25.5 39t71.5 -34t46 -54q0 -94 -41 -308.5t-79 -203.5q-20 0 -45 26.5t-25 40.5z" />
<glyph unicode="(" horiz-adv-x="993" d="M164 572.5q0 193.5 75.5 395t186.5 346t233.5 256t222 167t141.5 55.5t73.5 -29.5t31.5 -59.5t-58 -79t-144 -110.5t-188.5 -160t-188.5 -209t-144.5 -272t-58.5 -312t42 -252t104.5 -163t136 -111.5t137.5 -79q145 -70 145 -114t-59 -44q-98 0 -213 50.5t-223.5 140.5 t-180 240.5t-71.5 344z" />
<glyph unicode=")" horiz-adv-x="1032" d="M-66 -143q0 37 193 204q190 164 360 414q84 123 139.5 288t55.5 311.5t-34 238.5t-82 143t-97 88t-83 69t-34 62q0 88 115 88q137 0 271 -176t134 -418q0 -197 -56 -386t-144 -331.5t-193.5 -264t-206.5 -199.5q-213 -166 -290 -166q-47 0 -48 35z" />
<glyph unicode="*" horiz-adv-x="731" d="M207 1241q0 10 37 26.5t97 43t95 49.5q-59 23 -136 83t-77 84.5t21 24.5q98 0 116 -39q8 -16 44 -55t61 -51v186q0 31 27 31q20 0 49.5 -26.5t29.5 -44t-36 -148.5q33 20 75.5 56t69.5 57.5t42 21.5t36.5 -17.5t21.5 -35.5q0 -12 -77.5 -56.5t-147.5 -72.5 q27 -23 75 -50.5t78.5 -46t30.5 -29.5t-15 -23.5t-33.5 -12.5t-72 33t-100.5 74q-8 -66 -29.5 -143t-38 -77t-32 15.5t-15.5 28t9.5 44t23 72.5t17.5 64q-33 -31 -106 -72t-90 -41t-33.5 15.5t-16.5 31.5z" />
<glyph unicode="+" horiz-adv-x="1228" d="M113 698q0 43 57 43q303 0 408 9q18 154 36 370q2 61 41 61.5t97.5 -57t58.5 -99.5t-49 -263q291 25 338 24q141 0 141 -45q0 -90 -516 -141q-76 -367 -90 -412t-37 -45q-29 0 -61.5 40t-32.5 72t6 67.5t19.5 110.5t25.5 153q-176 -12 -315 -13q-49 0 -88 41t-39 84z" />
<glyph unicode="," horiz-adv-x="466" d="M14 -332q0 23 43 74q129 154 129 256q0 33 -25.5 54.5t-52 40t-26.5 46t35 69.5t73 42q66 0 116 -60.5t50 -136.5q0 -129 -110.5 -271t-190.5 -142q-41 0 -41 28z" />
<glyph unicode="-" horiz-adv-x="940" d="M109 594q0 45 231 87t401 42q123 0 123 -51q0 -33 -66.5 -53.5t-321.5 -71.5t-278.5 -51t-56 34.5t-32.5 63.5z" />
<glyph unicode="." horiz-adv-x="485" d="M115 165q0 44 35.5 88t73.5 44t88 -100.5t50 -151.5q0 -16 -22.5 -36.5t-42.5 -20.5q-51 0 -116.5 66.5t-65.5 110.5z" />
<glyph unicode="/" horiz-adv-x="724" d="M31 -41q0 113 647 1612q2 6 6 15t6 14.5t5 11.5t6.5 8t7.5 6q6 4 24.5 4t64.5 -61.5t46 -107.5t-52.5 -168t-153.5 -333.5t-226 -515t-193.5 -453t-92.5 -149.5t-59.5 44t-35.5 73z" />
<glyph unicode="0" horiz-adv-x="1024" d="M106 412q0 248 91.5 501.5t229.5 414.5t267 161t200 -122t71 -340t-79 -445.5t-210 -386t-257 -158.5t-219.5 115.5t-93.5 259.5zM297 434q0 -236 125 -235q59 0 144 131t149.5 323t64.5 346q0 322 -94 322q-43 0 -109.5 -85t-129 -212t-106.5 -290t-44 -300z" />
<glyph unicode="1" horiz-adv-x="643" d="M139 140q0 44 44 212t99.5 459t75.5 612q6 63 48 64q45 0 97 -57.5t52 -96.5q0 -219 -104 -631q-23 -82 -51.5 -202.5t-47 -193.5t-41.5 -146q-41 -145 -80 -146q-29 0 -60.5 41t-31.5 85z" />
<glyph unicode="2" horiz-adv-x="1189" d="M84 217q0 49 197 197q184 135 362 315q84 86 140.5 189.5t56.5 190.5t-39 136t-106.5 49t-127 -41t-96.5 -80.5t-47 -39.5q-35 0 -82 30.5t-47 61.5q0 76 126 168t269.5 92t238.5 -101.5t95 -250.5q0 -442 -758 -928q49 6 208 30.5t278.5 41t176 16.5t86 -9.5t29.5 -37.5 q0 -57 -308 -130t-451 -73q-63 0 -132 56.5t-69 117.5z" />
<glyph unicode="3" horiz-adv-x="1169" d="M70 102q0 18 121.5 48t267 64t267.5 108.5t122 173.5q0 53 -74 86.5t-164 48.5q-238 35 -237 82q0 16 6 24q16 29 104 80t179.5 100.5t167 129t75.5 161.5q0 96 -104 97q-84 0 -213 -67t-146.5 -67t-64.5 44.5t-47 66.5q0 61 167 127t296 66t218 -88.5t89 -202t-129 -231 t-299 -197.5q186 -25 296.5 -92.5t110.5 -179t-130 -220t-315 -170t-374.5 -61.5t-189.5 69z" />
<glyph unicode="4" horiz-adv-x="1128" d="M147 707q0 90 69 228t157 256t174 205t119.5 87t65.5 -24.5t32 -54.5t-108.5 -158t-217 -283.5t-108.5 -247.5q0 -113 114 -113q98 0 242.5 53.5t149.5 55.5q25 166 24 313q0 66 43 66q33 0 86 -48.5t53 -89.5q0 -184 -118.5 -580.5t-186.5 -396.5q-23 0 -44 30t-21 63.5 t18.5 97t52 168t56.5 194.5q-195 -88 -371 -88q-119 0 -200 71t-81 196z" />
<glyph unicode="5" horiz-adv-x="1099" d="M59 328q0 59 33 59q12 0 60 -47q139 -139 242.5 -139t225 96t121.5 192q0 88 -151 193q-61 43 -124 89t-107 109.5t-44 146.5t94.5 235.5t155.5 167.5q127 36 344 36q299 0 299 -63q0 -45 -352 -100q-156 -25 -195.5 -34t-94 -108.5t-54.5 -143.5t43 -92t105.5 -94.5 t125.5 -95.5q147 -117 148 -227q0 -172 -164 -319.5t-344 -147.5q-141 0 -254 96t-113 191z" />
<glyph unicode="6" horiz-adv-x="1138" d="M96 363.5q0 148.5 97.5 355.5t222.5 368.5t240.5 274.5t157.5 113t83 -21.5t41 -43t-70 -95.5q-276 -293 -391 -459q227 -20 378 -119.5t151 -210.5q0 -172 -199 -328.5t-416 -156.5q-129 0 -212 87t-83 235.5zM279 346q0 -70 36 -104.5t95 -34.5q135 0 265 96t130 207 q0 78 -109.5 143.5t-292.5 87.5q-125 -219 -124 -395z" />
<glyph unicode="7" horiz-adv-x="944" d="M203 1403q0 20 169 45t331.5 25t205.5 -29q35 -27 60.5 -85.5t25.5 -95t-19.5 -82.5t-56 -110.5t-72.5 -123t-85 -137.5t-94 -155.5t-150.5 -271.5t-156 -275.5t-77 -80.5t-51 37.5t-24.5 74.5q0 68 151.5 325t304 506t152.5 292q0 37 -68.5 36.5t-219 -23t-191.5 -22.5 t-88 56.5t-47 93.5z" />
<glyph unicode="8" horiz-adv-x="1232" d="M186 289q0 94 100.5 209.5t278.5 261.5q-297 229 -348 305q-29 41 -29 77t11.5 71.5t29.5 35.5t51 -33.5t61 -60.5t90.5 -78t142 -112.5t122.5 -98.5q121 96 182.5 149.5t118 121t56.5 112.5q0 78 -103.5 78t-236.5 -50t-162 -50t-73 30.5t-44 59.5q0 61 158 118.5 t317.5 57.5t241.5 -65.5t82 -175t-106.5 -229.5t-297.5 -271q190 -180 191 -308q0 -100 -89 -195t-215 -149.5t-228.5 -54.5t-202 75t-99.5 169zM369 300q0 -38 35.5 -68.5t78.5 -30.5q113 0 233 83t120 187q0 57 -136 178q-111 -88 -170 -138t-110 -111.5t-51 -99.5z" />
<glyph unicode="9" horiz-adv-x="999" d="M141 872.5q0 114.5 80 261t208 250t242.5 103.5t176 -77t61.5 -156.5t-14 -125.5q68 -12 68 -86q0 -41 -52.5 -176t-84 -231t-69.5 -271.5t-61.5 -264.5t-50.5 -89q-70 0 -70 164t111 522q-150 -115 -262.5 -114.5t-197.5 88.5t-85 202.5zM303 850q0 -51 36 -82t74 -31 t62.5 6.5t49 19.5t44 25.5t43 37t38 39t38 45t33.5 42.5q39 53 59 84q-47 6 -47 37l19 137q0 45 -21.5 75t-60.5 30q-109 0 -238 -172t-129 -293z" />
<glyph unicode=":" horiz-adv-x="503" d="M80 199q0 49 28.5 97t59.5 48q49 0 97 -115.5t48 -183.5q0 -23 -16 -41t-41 -18q-47 0 -111.5 82t-64.5 131zM236 904q0 48 29.5 96.5t58.5 48.5q51 0 99 -117t48 -162q0 -82 -57 -82q-47 0 -112.5 84t-65.5 132z" />
<glyph unicode=";" horiz-adv-x="626" d="M8 -369q0 20 43 72q129 154 129 258q0 33 -26.5 54.5t-52 39t-25.5 45t34.5 70.5t73.5 43q66 0 116 -60.5t50 -136.5q0 -129 -110.5 -272t-190.5 -143q-41 0 -41 30zM260 904q0 48 29.5 96.5t58.5 48.5q49 0 98.5 -117t49.5 -162t-17.5 -63.5t-42.5 -18.5 q-47 0 -111.5 84t-64.5 132z" />
<glyph unicode="&#x3c;" horiz-adv-x="1103" d="M166 598q0 33 22.5 83t47.5 71q104 88 386 223t384 135q43 0 70.5 -34t27.5 -54.5t-10 -30.5q-14 -14 -134 -59t-347.5 -155.5t-227.5 -153.5q0 -35 147.5 -115t296 -158t148.5 -108q0 -43 -75 -43t-252 72.5t-330.5 171t-153.5 155.5z" />
<glyph unicode="=" horiz-adv-x="1292" d="M117 492q0 34 389 79t525 45t136 -51q0 -76 -477 -139q-344 -43 -495 -43q-27 2 -52.5 42t-25.5 67zM182 893q2 43 318.5 75.5t519.5 32.5t203 -63q0 -35 -89.5 -55.5t-425 -59.5t-446.5 -39q-27 0 -53.5 40t-26.5 69z" />
<glyph unicode="&#x3e;" horiz-adv-x="1148" d="M176.5 239q-0.5 42 164.5 139t330 186t165 112q0 43 -166 137t-273 125q-39 12 -83 64t-44 77q0 33 47 33q139 -2 336 -108.5t318 -225.5q66 -66 65 -121q0 -78 -321 -254q-25 -14 -39 -22q-326 -184 -438 -184q-61 0 -61.5 42z" />
<glyph unicode="?" horiz-adv-x="1060" d="M276 166q0 43 35 85t70 42t84 -99.5t49 -148.5q0 -14 -20.5 -32.5t-38.5 -18.5q-49 0 -114 64.5t-65 107.5zM365 1325q0 113 100 201t233 88t226.5 -84t93.5 -227q0 -84 -56.5 -176.5t-125.5 -159.5q-205 -203 -255.5 -324t-68.5 -137.5t-33 -16.5q-51 0 -51 132 q0 84 64.5 180t141.5 168.5t141.5 162t64.5 157t-44 107.5t-107.5 40t-112 -39.5t-48.5 -98.5l4 -53q0 -25 -25.5 -36t-45 -11t-58 47t-38.5 80z" />
<glyph unicode="@" horiz-adv-x="1976" d="M88 260q0 201 84 416t230.5 398t368.5 302t472 119q287 0 457 -182.5t170 -466.5q0 -133 -54.5 -264t-137.5 -226.5t-183 -154t-176 -58.5t-122 42t-60 108q-182 -193 -310 -193q-92 0 -182 79t-90 165t54.5 212t135 239.5t187 193.5t199 80t168 -89t75.5 -160.5 t-43 -135.5q31 -35 31 -61.5t-34 -111.5t-34 -122t16.5 -60.5t50.5 -23.5t90 42t109.5 110.5t92.5 170t39 206.5q0 221 -112 359t-322.5 138t-396 -101.5t-311.5 -258t-201 -345t-75 -376t112 -308t312 -120.5q233 0 443 74q70 25 88 24q27 0 26 -29q0 -84 -190.5 -156.5 t-364.5 -72.5q-262 0 -437 175t-175 423zM717 340q0 -37 30.5 -62.5t67.5 -25.5q92 0 220 132t169 310q6 29 35 31v14q-6 74 -30.5 124t-63.5 50q-76 0 -179.5 -109.5t-176 -246.5t-72.5 -217z" />
<glyph unicode="A" d="M86 542q0 40 203 105q33 74 53 133q47 117 131 320t106.5 259t79 96t109.5 40q63 0 113.5 -202.5t81.5 -501.5q57 6 100 6q92 -1 92 -54q0 -39 -180 -90q16 -213 16 -362q0 -258 -65 -258q-35 0 -55.5 43t-32.5 149q-14 197 -31 385q-92 -25 -168 -44t-229 -62 q-180 -471 -213 -471t-71 40t-38 85q0 20 117 291h-15q-41 0 -72.5 26.5t-31.5 66.5zM485 700q145 39 308 66q-37 350 -72 526q-93 -211 -236 -592z" />
<glyph unicode="B" horiz-adv-x="1304" d="M12 228.5q0 58.5 35 58.5q8 0 81 -44t153 -46q-29 14 -54.5 53t-25.5 73.5t49 194.5q152 481 156 739h-17q-37 0 -76 46.5t-39 74.5q0 35 87.5 60.5t209.5 25.5q287 0 442.5 -77.5t155.5 -225.5q0 -123 -103 -223t-302 -162l18 -2q172 -10 284 -84t112 -170 q0 -121 -125 -234.5t-324 -182t-405 -68.5q-121 0 -216.5 67.5t-95.5 126zM313 197q145 4 305 52t270.5 125.5t110.5 153.5q0 61 -142 103.5t-284 42.5q-55 0 -96 57q-125 -494 -164 -534zM500 813q49 31 153.5 71t165 70.5t88 54t53 62.5t25.5 80q0 68 -68.5 105.5 t-166 37.5t-236.5 -24q57 -61 57 -117.5t-71 -339.5z" />
<glyph unicode="C" horiz-adv-x="1226" d="M133 440q0 193 126 435.5t324 418.5t380 176q53 0 109 -67.5t56 -111.5t-15 -44t-58 15.5t-78 15.5q-80 0 -193.5 -82t-215 -203t-173 -275.5t-71.5 -267t58 -165t152.5 -52.5t194.5 28t164 63q164 88 180 88q35 0 35 -46.5t-94 -123t-233.5 -138t-250.5 -61.5 q-143 0 -270 124t-127 273z" />
<glyph unicode="D" horiz-adv-x="1320" d="M164 230.5q0 68.5 118.5 494.5t129.5 561q-66 27 -105 70t-39 82t41 39q193 0 411 -100.5t375.5 -277.5t157.5 -368q0 -125 -173 -294t-400 -288.5t-377 -119.5q-39 0 -89 66.5t-50 135zM342 213q141 18 316.5 123.5t291 226.5t115.5 191q0 127 -151.5 275.5 t-352.5 213.5q10 -37 10 -87t-35.5 -187.5t-129.5 -458.5q-39 -135 -64 -297z" />
<glyph unicode="E" horiz-adv-x="1198" d="M129 225q0 84 60.5 287t122 432.5t61.5 386.5q0 23 8 47q35 76 446.5 76t411.5 -59q0 -41 -88 -56q-74 -14 -195.5 -25t-171 -16.5t-237.5 -37.5v-7q0 -139 -76 -419q12 -2 83 -2q3 0 7 -1q71 1 183 11q118 10 178.5 10t60.5 -29q0 -72 -168 -106.5t-389 -34.5 q-111 -350 -111 -424q0 -25 15.5 -40t40.5 -15q236 0 520 76q88 24 105 24h1q31 0 31 -43q0 -74 -226.5 -151.5t-436.5 -77.5q-94 0 -165 55t-71 139z" />
<glyph unicode="F" horiz-adv-x="1071" d="M115 186.5q0 36.5 117.5 512t121.5 632.5q0 31 15 49q20 43 121.5 61.5t297 18.5t307 -20.5t111.5 -57.5q0 -25 -34.5 -35t-61.5 -15t-70 -10t-79.5 -8t-95 -9.5t-107.5 -11.5t-133 -15t-109 -12q2 -6 2 -19q0 -96 -80 -442q42 -2 87 -2q89 0 187 8q146 12 179 12 q78 0 78 -32q0 -63 -177.5 -106.5t-388.5 -43.5h-4q-4 -20 -39.5 -163.5t-46 -187.5t-17.5 -70.5t-15.5 -60.5t-15.5 -53.5t-13 -37.5q-12 -35 -25 -35q-27 0 -69.5 58.5t-42.5 95z" />
<glyph unicode="G" horiz-adv-x="1251" d="M94 391q0 207 131 461t330 435t373 181q57 0 112.5 -68.5t55.5 -110.5t-23 -42q-6 0 -45 15.5t-84 15.5q-129 0 -285.5 -141.5t-267 -353.5t-110.5 -394q0 -74 47 -126t110 -52q98 0 230.5 107.5t244.5 277.5q-115 -31 -170 -31t-94 30t-39 56q0 33 88 52.5t222 19.5 q74 0 119.5 -62.5t45.5 -145.5t-102 -390t-154.5 -307t-52.5 59q0 57 30 155.5t62.5 202t53.5 168.5q-100 -170 -227.5 -269t-247 -99t-236.5 111.5t-117 244.5z" />
<glyph unicode="H" horiz-adv-x="1372" d="M135 192.5q0 49.5 90 401.5q-27 10 -46 35.5t-19 58.5q0 27 106 60q137 537 137 665q0 35 9.5 48.5t37 13.5t73.5 -63.5t46 -142.5t-100 -474q270 55 530 71q104 426 105 547q0 61 41 62q35 0 82 -63.5t47 -132.5t-92 -417q94 -14 94 -56t-127 -69q-66 -242 -89.5 -335 t-37.5 -148t-31 -111q-29 -108 -51 -108q-29 0 -66.5 48t-37.5 99t122 527q-299 -41 -538 -95q-29 -106 -54.5 -205.5t-40 -154.5t-30.5 -111q-29 -108 -49 -108q-25 0 -68 54t-43 103.5z" />
<glyph unicode="I" horiz-adv-x="634" d="M139 178q0 41 122 572.5t124 658.5q0 35 9 48t39 13t78 -63.5t48 -136t-147 -672.5q-14 -55 -39 -158.5t-39.5 -159t-30.5 -120.5q-35 -121 -59.5 -121t-64.5 49t-40 90z" />
<glyph unicode="J" horiz-adv-x="958" d="M16 338q0 59 37 59q23 0 123 -102q39 -37 94.5 -68.5t108.5 -31.5q68 0 124 142t156.5 507.5t161.5 466.5q-90 -14 -252.5 -53t-195.5 -39q-76 0 -76 51q0 70 255 141.5t374 71.5q37 0 64.5 -16.5t27.5 -48.5t-29 -115q-127 -371 -166 -504q-133 -485 -202.5 -628.5 t-208 -143.5t-267.5 114.5t-129 196.5z" />
<glyph unicode="K" horiz-adv-x="1210" d="M111 189.5q0 52.5 133 568.5t133 647q0 37 8 51t38 14t71 -63.5t41 -145t-107 -485.5q186 254 393 468t262 214q41 0 77 -26.5t36 -52t-97.5 -114.5t-261 -249t-280.5 -320q0 -84 45 -182q72 -164 295 -272q96 -47 150.5 -80t54.5 -68q0 -53 -80 -53t-168 34t-176 95 t-161 162.5t-99 222.5q-63 -113 -119 -297q-68 -217 -82 -217h-2q-29 0 -66.5 48t-37.5 100.5z" />
<glyph unicode="L" horiz-adv-x="1118" d="M127 228.5q0 78.5 140.5 566t140.5 628.5q0 33 9 47.5t38.5 14.5t74.5 -51.5t45 -108.5q0 -143 -176 -725q-88 -283 -88 -338t54 -55q231 0 507 76q86 25 105 25h1q18 0 24 -7.5t6 -28.5q0 -86 -210 -161.5t-427 -75.5q-98 0 -171 57.5t-73 136z" />
<glyph unicode="M" horiz-adv-x="1615" d="M115 196.5q0 49.5 132 565.5t132 647q0 35 9 48t35 13t89 -55t68 -98q8 -74 77.5 -261.5t159.5 -379.5q115 135 289 359.5t258 318.5t121 94t78 -41t41 -78t-8.5 -84t-28 -124t-34.5 -133t-50 -175t-53.5 -189.5t-43 -172t-40 -166t-31.5 -125.5q-31 -119 -58.5 -119 t-54 49t-26.5 132t70.5 380t152.5 520q-377 -471 -464 -563t-143.5 -92t-105.5 63q-74 106 -199 504q-35 -215 -76.5 -367.5t-55 -202.5t-22.5 -83t-21.5 -77t-21.5 -72.5t-19.5 -62.5t-17.5 -54.5t-15 -38.5q-16 -35 -25 -35q-25 0 -61.5 53t-36.5 102.5z" />
<glyph unicode="N" horiz-adv-x="1386" d="M109 176q0 49 133 576.5t137 658.5q0 66 35 66q23 0 62.5 -38t58.5 -83q330 -856 417 -1049q133 352 178 842q21 226 21 244q4 88 42 88t83 -47.5t45 -83.5q0 -168 -52 -477.5t-139.5 -573.5t-164.5 -264q-27 0 -61 26.5t-52 65.5q-61 143 -363 909 q-61 -238 -135.5 -537.5t-99.5 -381.5t-43 -82q-27 0 -64.5 46t-37.5 95z" />
<glyph unicode="O" horiz-adv-x="1255" d="M111 438q0 186 68.5 379t172 336t228.5 234.5t231 91.5q172 0 286.5 -157t114.5 -353.5t-108.5 -412.5t-289.5 -368.5t-365 -152.5q-135 0 -236.5 133t-101.5 270zM297 451q0 -113 49 -183.5t115 -70.5q102 0 236 120.5t230.5 298t96.5 335t-60.5 256t-142.5 98.5 t-204.5 -127t-221 -333t-98.5 -394z" />
<glyph unicode="P" horiz-adv-x="1112" d="M88 169q0 46 59 245q184 612 193 854q-49 45 -49 82q0 51 139 98t266 47q197 0 323 -100t126 -262q0 -221 -212 -375t-560 -221q-150 -506 -178.5 -506t-67.5 46t-39 92zM418 696q246 66 396.5 181.5t150.5 242.5q0 90 -69 148.5t-165 58.5t-233 -61q20 -45 20 -84 q0 -115 -100 -486z" />
<glyph unicode="Q" horiz-adv-x="1312" d="M117 438q0 190 67.5 383t169 333t225 229.5t232.5 89.5q172 0 302 -156t130 -351.5t-102.5 -409.5t-261.5 -355q29 -80 71.5 -187.5t63 -164t20.5 -87.5q0 -47 -51 -47q-92 0 -242 391q-124 -66 -254 -66h-2q-131 1 -249.5 124t-118.5 274zM297 453q0 -113 66.5 -184.5 t144.5 -71.5t176 71q-145 455 -145 709q0 80 14 139q-111 -135 -183.5 -315t-72.5 -348zM707 1087q0 -334 108 -696q105 123 173.5 273.5t68.5 296t-74 244t-158 98.5q-33 0 -71 -17q-47 -66 -47 -199z" />
<glyph unicode="R" horiz-adv-x="1196" d="M96 169q0 46 113 443.5t129 604.5q-27 16 -47.5 51t-20.5 61q0 47 139.5 97.5t308.5 50.5t293 -81t124 -229q0 -100 -56.5 -187t-137.5 -142.5t-161 -98.5t-136 -70.5t-56 -39.5q0 -45 70.5 -117t99 -98.5t76 -70.5t89.5 -79t67.5 -57.5t51.5 -46.5q51 -47 52 -76 q0 -49 -68 -49q-123 0 -350 214t-279 363q-96 -319 -110.5 -369t-32.5 -104q-33 -106 -49 -106q-31 0 -70 45t-39 91zM428 721q35 27 133 79t177 96t144.5 117.5t65.5 153.5q0 127 -221 127q-100 0 -233 -51q20 -45 20 -82q0 -133 -86 -440z" />
<glyph unicode="S" horiz-adv-x="1087" d="M10 336q0 61 37 61q33 0 129 -98q37 -35 99.5 -65.5t132.5 -30.5q143 0 254.5 73.5t111.5 159.5q0 55 -73.5 141.5t-162.5 163t-163 164.5t-74 139.5t20.5 108.5t45.5 84q80 88 248.5 162t283.5 75q59 0 100 -39.5t41 -82.5q0 -20 -43 -32.5t-130 -32t-154 -46.5 q-236 -90 -236 -174q0 -45 240 -252q92 -80 166.5 -185.5t74.5 -191.5q0 -168 -151.5 -281.5t-347 -113.5t-322.5 101.5t-127 191.5z" />
<glyph unicode="T" horiz-adv-x="1095" d="M129 1405q0 37 118 47t517 10q207 0 341 -45t134 -100q0 -39 -67.5 -39t-188.5 8t-231 10q6 -20 6 -45q0 -76 -160 -704q-16 -66 -49 -205t-49 -195q-29 -108 -51 -108q-31 0 -69 46t-38 93t111 484t129 632l-351 -16q-33 0 -67.5 43t-34.5 84z" />
<glyph unicode="U" horiz-adv-x="1224" d="M174 434q0 162 86 509t86 468q0 35 8 48.5t38 13.5t79 -54.5t49 -127t-83 -396.5t-83 -439.5t43 -187t110.5 -71.5t149.5 77.5t153 203.5t119 307.5t48 365.5q0 86 -9.5 172t-9.5 107q0 43 37 43q47 0 108.5 -71t61.5 -181q0 -315 -92 -592t-247.5 -441.5t-331.5 -164.5 q-129 0 -224.5 124.5t-95.5 286.5z" />
<glyph unicode="V" horiz-adv-x="1089" d="M141 1407q0 63 35 63q43 0 88 -44t72 -111q12 -37 60 -408.5t110 -605.5q131 371 337.5 770t272.5 399q33 0 65.5 -23.5t32.5 -57t-37.5 -107.5t-130 -236.5t-158 -293.5t-123.5 -257t-92 -201t-67 -142q-66 -125 -108 -125q-25 0 -60 39.5t-55 91.5 q-55 137 -148.5 634.5t-93.5 614.5z" />
<glyph unicode="W" horiz-adv-x="1601" d="M147 226q0 81 55.5 506t55.5 663q0 76 44 76l1 -1q45 0 105.5 -53t60.5 -97t-68.5 -433t-85.5 -611q125 211 282 390.5t224 179.5q70 0 97 -307q10 -115 39.5 -211.5t80.5 -96.5q115 0 200 185.5t85 410.5q0 250 -111 385q-57 72 -125.5 72t-116.5 47t-48 82q0 60 98 60 q240 0 362.5 -190.5t122.5 -479.5t-142 -525.5t-329 -236.5q-131 0 -192.5 147.5t-79.5 419.5q-86 -121 -197 -274q-213 -295 -299 -295q-33 0 -76 53t-43 134z" />
<glyph unicode="X" horiz-adv-x="1277" d="M51 110.5q0 16.5 2 21.5t7.5 12.5t8.5 11.5t31 32q166 180 426 521q-276 498 -276 708q0 55 29 56q59 0 117.5 -30t58.5 -69q0 -188 184 -514q289 399 384.5 501.5t152.5 102.5q25 0 65.5 -43t40.5 -64.5t-13.5 -33.5t-42 -32.5t-48.5 -41.5q-76 -74 -445 -549 q55 -90 159.5 -246.5t151 -235.5t46.5 -111.5t-16.5 -50t-37.5 -17.5q-51 0 -168.5 146.5t-251.5 365.5q-106 -141 -138 -182t-66.5 -87t-56 -72t-49 -57.5t-46 -49t-39.5 -33.5q-37 -29 -68.5 -29t-66.5 26.5t-35 43z" />
<glyph unicode="Y" horiz-adv-x="1177" d="M188 1323q0 143 82 143q33 0 52.5 -63.5t48 -182t76 -218t113 -169t110.5 -69.5q37 0 134 175t198.5 351t144.5 176t69.5 -30.5t26.5 -73.5t-78 -172t-209 -341t-262 -460t-180 -309.5t-80 -61.5q-45 0 -45 74q0 57 57 174q18 35 28.5 58.5t33 66.5t35 66.5t38 74 t37.5 72.5q-121 31 -222 153t-154.5 272.5t-53.5 293.5z" />
<glyph unicode="Z" horiz-adv-x="1269" d="M121 253q0 69 89 172t215 209.5t251 211.5q305 252 305 340q0 39 -93 64.5t-198.5 25.5t-194.5 -15.5t-110 -15.5q-45 0 -88 47t-43 86q-4 37 135 64q72 12 166 12q217 0 401 -61q80 -27 137.5 -96.5t57.5 -135t-85 -175t-207 -217t-244.5 -210t-207.5 -182.5t-85 -104.5 t14 -39t39 -14.5q109 0 347.5 34t308 34.5t69.5 -49.5q0 -66 -256 -130.5t-516 -64.5q-78 0 -142.5 70.5t-64.5 139.5z" />
<glyph unicode="[" horiz-adv-x="927" d="M154 38q0 71 99 388t197.5 655t98.5 457q0 12 2 16v2q2 51 81.5 68.5t239.5 17.5q254 0 254 -69q0 -27 -20.5 -37t-36.5 -15t-46 -9.5t-56.5 -7.5t-71.5 -9q-109 -14 -170 -29q2 -6 2 -16q0 -160 -246 -911q-131 -410 -131 -456t51.5 -46t167 13t133.5 13q39 0 39 -36 q0 -53 -130 -106.5t-223 -53.5t-163.5 50t-70.5 121z" />
<glyph unicode="\" horiz-adv-x="1228" d="M254 1461q0 46 46 107.5t71 61.5q23 0 35 -24q8 -16 14 -35q647 -1499 647 -1612q0 -29 -36 -73t-59.5 -44t-92 149.5t-193.5 453t-226.5 515t-153.5 333.5t-52 168z" />
<glyph unicode="]" horiz-adv-x="921" d="M-10 6q0 37 41 37t135 -12.5t148.5 -12.5t62.5 45q262 1075 262 1293q0 14 2 22l-106 2q-154 0 -183 2q-90 8 -90 45q0 53 105.5 85t236.5 32q236 0 236 -88v-10q0 -315 -269 -1440q-23 -86 -76 -123t-160.5 -37t-226 50.5t-118.5 109.5z" />
<glyph unicode="^" horiz-adv-x="864" d="M113 1204q0 104 128 315.5t195 211.5q31 0 73 -14.5t58.5 -32t27.5 -47t34.5 -98.5t82 -210.5t58.5 -159.5q0 -37 -33 -36q-76 0 -270 401q-88 -90 -170 -254q-57 -115 -74.5 -127t-39 -12t-46 20.5t-24.5 42.5z" />
<glyph unicode="_" d="M90 64.5q0 35.5 162 54t409.5 18.5t380.5 -24q91 -17 91 -60q0 -35 -111 -49q-197 -23 -353.5 -23.5t-305 -12t-184.5 -11.5t-62.5 36t-26.5 71.5z" />
<glyph unicode="`" horiz-adv-x="436" d="M20 1628.5q0 24.5 31 62.5t68 38q27 0 78 -54q12 -14 34.5 -38.5t36.5 -39.5q133 -135 144 -167q4 -10 4 -28t-17.5 -36t-36 -18t-40 13t-60.5 44t-61.5 47t-49 34.5t-39 27t-31 21.5t-27.5 21.5t-18 19.5t-12.5 19.5t-3.5 33z" />
<glyph unicode="a" horiz-adv-x="960" d="M14 279q0 123 90.5 304t233.5 322.5t270 141.5q92 0 170 -93.5t78 -168t-51 -152.5q25 -31 24 -53q0 -57 -25.5 -196.5t-30.5 -182.5t-9 -69t-10 -50q-8 -51 -37 -51q-37 0 -60.5 64.5t-27.5 166.5q-182 -231 -338 -231q-94 0 -185.5 81t-91.5 167zM186 279 q0 -35 29 -56.5t68 -21.5q96 0 217 130t168 316q6 31 34 37v2q0 190 -75 191q-80 0 -186.5 -114t-180.5 -257.5t-74 -226.5z" />
<glyph unicode="b" horiz-adv-x="1075" d="M45 158q0 39 64.5 266t129 547.5t64.5 587.5q0 61 45 61q33 0 80 -60.5t47 -117.5q0 -252 -110 -719q244 330 442 330q96 0 162.5 -94.5t66.5 -224.5t-74.5 -298t-201.5 -287.5t-266.5 -119.5t-274.5 141l-2 -2q-45 -137 -65 -137q-29 0 -68 44t-39 83zM274 311 q97 -123 203 -123q133 0 261 181.5t128 382.5q0 120 -72 120h-1q-119 0 -265.5 -165.5t-253.5 -395.5z" />
<glyph unicode="c" horiz-adv-x="911" d="M66 345q0 128 86 296t222 287t265 119q84 0 147.5 -76t63.5 -133q0 -16 -10.5 -27.5t-29.5 -11.5t-68.5 36.5t-88.5 36.5q-111 0 -258 -194.5t-147 -339.5q0 -63 40 -100t129 -37t163.5 21.5t115.5 43t64 21.5q39 0 39 -39q0 -59 -142.5 -138t-262.5 -79t-224 93 t-104 221z" />
<glyph unicode="d" horiz-adv-x="1021" d="M37 283q0 127 68.5 302t197.5 318.5t274.5 143.5t202.5 -175q104 434 115 687q0 61 45 61q33 0 81 -60.5t48 -113.5t-51 -302t-119 -515q-147 -598 -194 -598q-29 0 -63 35.5t-34 62.5t15 107q-201 -205 -351 -205q-90 0 -162.5 82t-72.5 170zM205 276q0 -37 26.5 -59 t63.5 -22q80 0 216 114.5t198 270.5l6 24v10q0 111 -38 187t-91 76q-88 0 -180.5 -109t-146.5 -249t-54 -243z" />
<glyph unicode="e" horiz-adv-x="921" d="M39 366.5q0 145.5 78 304t200.5 267.5t243.5 109t220.5 -115t99.5 -224.5t-118 -178t-266.5 -68.5t-269.5 33q-29 -88 -29 -159q0 -73 45 -112q44 -39 145 -39t209 36t118 36q53 0 53 -41q0 -55 -125 -119.5t-244 -64.5q-160 0 -260 95t-100 240.5zM274 610 q82 -18 186.5 -18t182.5 33.5t78 89t-50.5 113t-99.5 57.5q-76 0 -157.5 -79t-139.5 -196z" />
<glyph unicode="f" horiz-adv-x="770" d="M63 823q0 35 93 62q119 29 163 37q20 98 31 151q49 283 133 408t228 125q102 0 167.5 -81t65.5 -190.5t-57 -109.5q-49 0 -80 110q-10 41 -34.5 76t-59.5 35t-63.5 -32t-51.5 -91q-59 -166 -82 -303l-16 -72q76 10 150.5 10t108.5 -16t34 -41q0 -39 -68 -59.5t-264 -53.5 q-145 -590 -199 -702q-28 -59 -51 -59q-27 0 -57.5 38.5t-30.5 63.5t20 96q102 369 140 527q-88 -20 -121 -20l-1 -1l-65 29q-33 28 -33 63z" />
<glyph unicode="g" horiz-adv-x="972" d="M-31 -270q0 33 19.5 65.5t41 32.5t48 -30.5t50.5 -66.5t72 -67t93 -31t67.5 13.5t43 43t35 59.5t31.5 84t27.5 93t29 109.5t30.5 114.5q-160 -119 -260 -119t-174 81t-74 188.5t81 285.5t218 319.5t268 141.5q84 0 142 -64q94 -104 94 -297q0 -25 -2 -35q24 -34 24 -67 q0 -82 -71 -187q-55 -125 -118.5 -359.5t-106.5 -334.5q-86 -209 -265 -209q-145 0 -244.5 79t-99.5 157zM215 279q0 -35 22.5 -56.5t57.5 -21.5q102 0 241.5 121.5t196.5 283.5q-8 27 -14 82t-12.5 88t-27 67t-52.5 34q-80 0 -180.5 -115t-166 -256t-65.5 -227z" />
<glyph unicode="h" horiz-adv-x="1097" d="M47 154.5q0 31.5 23 119.5q102 393 129 539q106 532 106 727q0 80 49 80q39 0 83 -61.5t44 -118.5q0 -133 -66.5 -453.5t-172.5 -640.5q205 371 343 536t236 165q53 0 124 -92.5t71 -184.5t-51 -276q-127 -463 -240 -463q-45 0 -45 61.5t49 206.5q109 317 109 428 q0 37 -18.5 61.5t-45 24.5t-65.5 -28.5t-95 -100.5q-70 -92 -144.5 -207t-89.5 -138.5t-53 -84.5t-56.5 -91t-45.5 -65q-47 -68 -71.5 -68t-65.5 47q-41 46 -41 77.5z" />
<glyph unicode="i" horiz-adv-x="487" d="M57 109.5q0 29.5 15.5 94t45 172t47 175t36 152.5t30 137.5t25.5 105.5q28 101 59 101q39 0 74 -47.5t35 -92.5t-59.5 -269t-149.5 -503q-35 -102 -88 -102q-29 0 -49.5 23.5t-20.5 53zM326 1337q0 41 32.5 78t66.5 37t81 -83t47 -138q0 -20 -18.5 -36.5t-38.5 -16.5 q-49 0 -109.5 59t-60.5 100z" />
<glyph unicode="j" horiz-adv-x="520" d="M-453 -268q0 27 21.5 62.5t40.5 35.5q23 0 47.5 -30t38.5 -48q88 -113 145 -113v1q58 0 96.5 61t75.5 193.5t70 271.5t85 368.5t101 411.5q31 100 60 101q35 0 71.5 -44.5t36.5 -95.5q0 -47 -63.5 -285.5t-112.5 -429t-96 -372.5q-88 -322 -320 -322q-102 0 -199.5 86 t-97.5 148zM352 1337q0 41 33 78t67.5 37t81 -83t46.5 -138q0 -20 -18.5 -36.5t-37.5 -16.5q-49 0 -110.5 59t-61.5 100z" />
<glyph unicode="k" horiz-adv-x="960" d="M59 158.5q0 31.5 67 264t133.5 558.5t66.5 582q0 33 9 45t40 12t76 -60.5t45 -117.5q0 -182 -74 -510t-176 -623q231 330 400 534t209 204t77 -39t37 -72q0 -18 -183 -193q-68 -66 -124 -154.5t-56 -162.5t44 -136.5t96.5 -94t96.5 -62.5t44 -51q0 -51 -81 -51t-192.5 91 t-138.5 204q-10 20 -16 39q-139 -188 -201.5 -261t-93.5 -73t-68 48t-37 79.5z" />
<glyph unicode="l" horiz-adv-x="501" d="M59 145.5q0 24.5 59.5 254t119 564t59.5 603.5q0 29 8 41t35 12t77 -58.5t50 -113.5q0 -385 -160 -999q-102 -418 -143 -418q-29 0 -67 45t-38 69.5z" />
<glyph unicode="m" horiz-adv-x="1630" d="M45 146.5q0 23.5 8 58.5t17.5 67.5t29 97t45 151.5t39 239.5t19.5 223.5t35 71q45 0 89 -47t44 -95q0 -180 -135 -594q229 430 288.5 510t102.5 129q80 88 161 89q49 0 118 -85t69 -171t-25 -213q242 469 439 469q61 0 109 -85t48 -192.5t-38 -280t-101.5 -315.5 t-124.5 -143q-43 0 -43 56t70.5 276.5t70.5 350.5t-41 130q-51 0 -117.5 -90t-142 -217t-82 -136.5t-15.5 -26t-20.5 -34.5t-57.5 -110.5t-81 -144.5t-60.5 -52t-56 32.5t-30.5 61.5t37 119q106 266 106 495q0 43 -18.5 73t-41 30t-47 -19.5t-61.5 -69.5t-65.5 -95.5 t-87 -140.5t-88 -141t-68.5 -106.5t-60.5 -93.5t-48.5 -72q-55 -76 -80.5 -76t-66.5 47q-41 46 -41 69.5z" />
<glyph unicode="n" horiz-adv-x="1091" d="M47 158q0 10 14 55q39 119 86.5 294t51.5 398q6 150 43 150q45 0 90 -47t45 -103.5t-34 -217.5t-79 -300q197 334 321 497t202.5 163t149.5 -84t71 -179q0 -147 -68 -360q-123 -393 -221 -393q-45 0 -45 61q0 43 44 175t82 260t38 192.5t-19.5 95.5t-39 31t-40 -12.5 t-46 -41t-48 -56t-56.5 -79t-56.5 -87t-65.5 -103.5t-65.5 -102.5t-59.5 -94t-58.5 -92.5t-47.5 -72q-51 -76 -81 -76t-69 47q-39 46 -39 81z" />
<glyph unicode="o" horiz-adv-x="927" d="M74 371.5q0 148.5 70.5 308.5t186 263.5t237.5 103.5t204 -103.5t82 -252t-71.5 -303.5t-197.5 -256t-268 -101q-104 0 -173.5 96t-69.5 244.5zM250 366.5q0 -157.5 78 -196.5q147 29 250.5 201.5t103.5 326.5q0 70 -22.5 132.5t-65.5 91.5q-141 -39 -242.5 -218.5 t-101.5 -337z" />
<glyph unicode="p" horiz-adv-x="978" d="M-78 -373q0 35 66 299q196 793 196 1070q0 64 45 65q37 0 89.5 -54.5t52.5 -119.5q0 -33 -9 -72q183 238 371 238q88 0 152.5 -113t64.5 -232.5t-69.5 -239.5t-172 -214t-226.5 -156.5t-228 -62.5q-41 0 -78 10q-8 -35 -28.5 -125t-35 -149.5t-32.5 -126.5 q-37 -139 -66 -140v0q-28 0 -60 44t-32 79zM213 195h20q109 0 235 73.5t215 195.5t89 243q0 170 -80 170t-216 -137.5t-216 -356.5z" />
<glyph unicode="q" horiz-adv-x="970" d="M33 292q0 89 56 219t140 249t198 203t207 84t169 -76t76 -128t-35 -52q-25 0 -79 46t-95 46q-90 0 -206 -116t-193.5 -259t-77.5 -229q0 -33 22.5 -55.5t54.5 -22.5q113 0 256.5 127t194.5 325q8 31 41 31t77 -31.5t44 -61.5t-35 -127t-120 -320.5t-148 -403.5 q149 100 231 100q20 0 38.5 -17.5t18.5 -37.5q0 -33 -80.5 -81t-152.5 -99t-113 -79t-65.5 -28t-51 44t-26.5 68.5t3 40t11 42t18.5 54.5t28 77t33.5 93t44 120t52 141q-70 -68 -151.5 -107.5t-153 -39.5t-151.5 86t-80 175z" />
<glyph unicode="r" horiz-adv-x="677" d="M68 144q0 38 34 151q84 258 84 502l-6 153q0 96 45 97q39 0 75 -50.5t36 -119t-4 -103.5q178 270 338 270q100 0 100 -49q0 -25 -22.5 -45t-71.5 -47q-109 -47 -183.5 -144t-121.5 -220t-75 -207t-42 -131t-33 -92q-33 -82 -76 -82q-35 0 -56 39.5t-21 77.5z" />
<glyph unicode="s" horiz-adv-x="872" d="M12 238q0 27 13.5 42t34 15t57.5 -27q111 -80 230.5 -80t172.5 28t53 74t-59 98t-130 93t-130 100.5t-59 120.5q0 109 170.5 227t283.5 118q70 0 131.5 -77t61.5 -134q0 -35 -33 -35q-23 0 -70 35.5t-96 35.5t-154.5 -57t-105.5 -121q0 -47 188 -162q72 -45 130.5 -115.5 t58.5 -151.5t-111.5 -157.5t-260 -76.5t-262.5 71.5t-114 135.5z" />
<glyph unicode="t" horiz-adv-x="792" d="M57 897q0 49 267 94q36 166 36 294v7q0 61 41 62q35 0 86.5 -44t51.5 -99.5t-35 -194.5q117 10 186 10q123 0 123 -53q0 -31 -66.5 -51.5t-279.5 -63.5q-43 -162 -108.5 -369.5t-65.5 -252.5q0 -39 45 -39q78 0 189.5 44t123.5 44q37 0 37 -39q0 -59 -122 -137t-221 -78 t-164.5 54t-65.5 111.5t24.5 146.5t70.5 235.5t73 242.5q-94 -23 -128 -23h-1q-33 0 -65 34t-32 65z" />
<glyph unicode="u" horiz-adv-x="985" d="M33 268q0 195 113.5 487t189.5 292q37 0 64.5 -34t27.5 -77q0 -18 -55.5 -132t-110.5 -266.5t-55 -267.5q0 -33 20.5 -54t48.5 -21q78 0 185.5 137t195.5 319.5t131 337.5q9 33 17 45.5t35.5 12.5t67.5 -53.5t40 -102.5q0 -27 -90 -315.5t-139 -458.5q-25 -86 -70 -86 q-27 0 -45 22.5t-18 82t47 214.5q-86 -139 -186.5 -229t-183.5 -90t-156.5 77.5t-73.5 159.5z" />
<glyph unicode="v" horiz-adv-x="864" d="M96 985q0 61 37 62q45 0 92 -38t66 -96q6 -33 16 -163q29 -324 99 -498q55 119 141 337t140 338t83 120q35 0 67.5 -26t32.5 -56q0 -55 -148.5 -383t-210.5 -441.5t-110 -113.5q-27 0 -65.5 38.5t-56.5 84.5q-55 129 -119 415.5t-64 419.5z" />
<glyph unicode="w" horiz-adv-x="1378" d="M96 975q0 84 51 84q45 0 83 -51.5t44.5 -101.5t11.5 -278.5t38 -406.5q84 145 169 364.5t139 344.5t99 125q68 0 112 -63t44 -163l-15 -385q0 -160 15 -231q88 92 152.5 216t96 230.5t55 199.5t44 148.5t47.5 55.5q39 0 69.5 -32t30.5 -73q0 -104 -94 -344 q-80 -221 -209 -404t-200.5 -183t-107.5 79.5t-40 305.5q-1 65 -1 125q0 149 7 268q-141 -385 -249.5 -581.5t-172.5 -196.5q-29 0 -60.5 26.5t-49.5 69.5q-45 109 -77 415t-32 437z" />
<glyph unicode="x" horiz-adv-x="874" d="M-20 127q0 10 45 55q199 199 297 324q-94 168 -160 311.5t-66 173t2 37.5q4 18 45 18q1 0 2 1q41 0 99 -25q60 -25 59 -59q0 -86 121 -320q166 223 247 313.5t119.5 90.5t76.5 -33t38 -56.5t-14 -39t-46 -42t-59.5 -56t-70.5 -82t-103.5 -129.5t-99.5 -124 q12 -18 37.5 -61t43 -71.5t45.5 -72.5t46 -72t35 -56q33 -53 33 -74t-14.5 -34t-35.5 -13q-92 0 -294 329q-267 -329 -326 -329q-33 0 -67.5 33.5t-34.5 62.5z" />
<glyph unicode="y" horiz-adv-x="960" d="M-39 -285q0 29 25.5 64t44 35t59.5 -45q119 -135 203 -136q63 0 114.5 112t97.5 252t51 154.5t12 37t14 40.5q-144 -198 -286 -198h-1q-86 0 -159 79.5t-73 188.5t53.5 293t125 319.5t116.5 135.5q37 0 69 -34t32 -69t-53 -145q-166 -340 -166 -529q0 -33 20.5 -54 t48.5 -21q74 0 176.5 131t188.5 311q72 152 149 387q8 23 41 23t71 -48.5t38 -107.5q0 -41 -84 -278.5t-114 -322.5t-80 -225.5t-97 -273.5q-102 -293 -307 -293q-117 0 -223.5 71t-106.5 146z" />
<glyph unicode="z" horiz-adv-x="901" d="M6 219q0 55 103.5 148.5t226.5 177.5q330 229 330 286q0 39 -209 39q-51 0 -127 -11t-110 -11t-71.5 43t-37.5 74q0 39 90 60.5t246.5 21.5t257.5 -41q45 -18 82.5 -75t37.5 -93q0 -78 -95 -178.5t-207.5 -178.5t-208 -149.5t-95.5 -95.5q0 -35 53 -35q117 0 287 16 t203 16q80 0 80 -47q0 -66 -205 -110.5t-395 -44.5q-88 0 -162 66.5t-74 121.5z" />
<glyph unicode="{" horiz-adv-x="862" d="M84 138q0 128 68.5 288t68.5 260q0 25 -31 74q-57 47 -57 102q0 16 7 31.5t21.5 15.5t75 -36.5t106.5 -36.5t78 29.5t32 74.5t-48.5 192.5t-48.5 289t112 242.5t249 101t216 -76.5t79 -183.5q0 -49 -32 -102t-65 -53q-29 0 -28.5 85t-25 123.5t-112.5 38.5t-157 -65.5 t-69 -188t46 -258t45 -182.5q0 -82 -65 -146.5t-174 -64.5h-10q10 -37 10 -89t-55.5 -195.5t-55.5 -250t58.5 -149.5t152.5 -43t121 -12t27 -48t-59.5 -68t-133.5 -32q-145 0 -245.5 102.5t-100.5 230.5z" />
<glyph unicode="|" horiz-adv-x="753" d="M137 -146.5q0 37.5 177.5 852t177.5 928.5q0 33 9 47.5t39.5 14.5t80 -60.5t49.5 -126t-166 -766.5q-12 -51 -78 -350q-145 -670 -175 -669.5t-72 46.5t-42 83.5z" />
<glyph unicode="}" horiz-adv-x="1101" d="M158 -12.5q0 57.5 32.5 57.5t55.5 -22q70 -70 180 -70q70 0 103.5 82t37.5 189.5t26.5 235.5t72.5 195q-66 31 -107 86.5t-41 122t56.5 145t123 143.5t123 146.5t56.5 152.5t-53.5 118t-116 47t-103.5 -26.5t-64.5 -57.5t-47 -57.5t-45 -26.5t-56.5 38t-35 62 q0 70 116 143.5t239 73.5t236.5 -98t113.5 -196.5t-58.5 -191.5t-130.5 -157q-186 -172 -186 -250q0 -92 115 -106q16 -2 37 -4q98 -10 98 -33q0 -55 -78 -88q-106 -59 -127 -350q-8 -113 -25.5 -223.5t-81 -183t-177 -72.5t-201.5 59t-88 116.5z" />
<glyph unicode="~" horiz-adv-x="1216" d="M164 559q0 98 109.5 210t215.5 112q55 0 103.5 -35t76 -78t67.5 -81t81 -44q41 6 76 39t53 68q47 94 100.5 94t53.5 -72q0 -98 -87 -197.5t-190 -99.5q-152 0 -315 262q-57 -25 -102.5 -68.5t-65.5 -80.5q-55 -94 -104 -94q-72 -1 -72 65z" />
<glyph unicode="&#xa1;" horiz-adv-x="724" d="M170 -317q0 176 88 613t143 437q33 0 60.5 -32.5t29 -57.5t-26.5 -161t-57.5 -379.5t-29.5 -493.5q0 -53 -35 -53q-39 0 -105.5 49t-66.5 78zM403 1169q0 14 20.5 33t41.5 19q49 0 112.5 -63.5t63.5 -107.5t-34 -86t-69.5 -42t-85 98t-49.5 149z" />
<glyph unicode="&#xa2;" horiz-adv-x="987" d="M98 358q0 209 184.5 449t372.5 258q68 190 105 190q26 0 40.5 -24.5t14.5 -53t-37 -139.5q61 -33 104.5 -93t43.5 -102t-33 -42q-27 0 -83 40t-75 48q-33 -119 -94 -348.5t-84 -313.5q88 10 167 42t101 32q39 0 39 -39q0 -49 -116.5 -115.5t-237.5 -87.5 q-63 -205 -90 -204q-18 0 -38 20.5t-20 41t27 142.5q-111 20 -201 109.5t-90 189.5zM281 362q0 -57 39.5 -96t105.5 -45q76 342 168 647q-113 -66 -213 -227.5t-100 -278.5z" />
<glyph unicode="&#xa3;" horiz-adv-x="1345" d="M94 313q0 90 63.5 150.5t164 60.5t213.5 -90q45 123 75 230q-219 0 -219 53q0 37 26.5 77t51.5 40q80 0 188 -11q98 330 198.5 454t248.5 124q94 0 157.5 -76t63.5 -174q0 -45 -49 -93t-80 -48.5t-31 34.5l11 80q0 92 -84 93q-57 0 -109.5 -81t-132.5 -319h16 q195 0 251.5 -7t56.5 -34q0 -80 -369 -106q-74 -231 -135 -369q121 -125 209 -125q57 0 109 27.5t83 62.5q82 88 119 88t59.5 -26.5t22.5 -65.5q0 -72 -131 -159t-238 -87q-152 0 -311 148q-96 -133 -232 -133q-76 0 -171 96t-95 186zM258 303q0 -35 39 -81t74 -46 q43 0 100 111q-88 88 -135 88q-78 0 -78 -72z" />
<glyph unicode="&#xa4;" horiz-adv-x="1228" d="M174 218.5q0 17.5 16.5 35.5t64.5 65.5t79 79.5q-51 80 -51 187q0 145 98 264q-20 39 -53 92q-66 102 -66 123q0 43 31 43q55 0 111.5 -20.5t67.5 -54.5t36 -79q78 39 160 39t145 -30q125 145 184 145q31 0 68 -34t37 -58.5t-39 -63.5t-68.5 -66.5t-48.5 -45.5 q45 -74 45 -170q0 -180 -127 -308q100 -158 100.5 -180t-14 -34.5t-35.5 -12.5q-61 0 -172 144q-63 -29 -143 -29t-147 37q-137 -152 -175 -152t-71 33t-33 50.5zM436 595q0 -95 53.5 -153.5t139.5 -58.5t151.5 87t64.5 178t-52.5 153.5t-138.5 62.5t-152.5 -87t-65.5 -182z " />
<glyph unicode="&#xa5;" horiz-adv-x="1153" d="M59 406q0 49 379 79q6 41 15 113q-180 -18 -269 -18q-23 0 -47 34.5t-24 67.5q0 49 309 72q-76 139 -151.5 316t-75.5 242.5t38 65.5q45 0 91.5 -33.5t70.5 -89.5q0 -2 54.5 -156.5t121.5 -273.5q16 20 98.5 125t125.5 156t108 127q125 145 174 145q31 0 62.5 -24.5 t31.5 -40t-9 -32.5t-28.5 -44t-40 -53.5t-53 -64.5t-58.5 -68.5t-65.5 -74.5t-64.5 -71.5t-66 -73t-59 -65.5h23q96 0 183 -10.5t87 -50.5q0 -59 -389 -91q-6 -51 -19 -114q123 6 209 6q180 0 180 -45q0 -66 -423 -121v-4q-12 -51 -23.5 -108.5t-19 -90.5t-15.5 -63 q-12 -53 -28 -54q-31 0 -76 41t-45 84t32 174q-176 -16 -270 -16q-25 0 -49.5 38t-24.5 65z" />
<glyph unicode="&#xa6;" horiz-adv-x="755" d="M139 -146.5q0 37.5 53.5 273t53.5 350.5q0 61 45 62q35 0 84 -60.5t49 -127t-68.5 -347t-103.5 -280.5q-29 0 -71 46t-42 83.5zM385 1012q0 39 54.5 273.5t54.5 348.5q0 33 9 47.5t38.5 14.5t80 -60.5t50.5 -128t-70 -347t-104 -279.5q-29 0 -71 46t-42 85z" />
<glyph unicode="&#xa7;" horiz-adv-x="950" d="M4 -4q0 37 23.5 82t44.5 45q20 0 33.5 -19.5t25.5 -42.5q72 -121 168 -120q166 0 166 149q0 82 -125 195q-53 47 -107 96q-125 123 -124.5 239.5t97.5 220t224 165.5q-100 119 -100 213q0 121 131 228t258 107q78 0 137 -75.5t59 -177t-57 -101.5q-51 0 -81 94.5 t-85 94.5q-68 0 -127 -52.5t-59 -101.5t37 -99.5t91 -104.5t107.5 -113.5t90 -139.5t36.5 -169t-90 -182t-223 -130q94 -104 94 -221t-93 -206t-251 -89q-115 0 -208 76.5t-93 138.5zM289 623q0 -39 27.5 -82t53 -67.5t83.5 -76.5q94 13 164.5 82.5t70.5 140t-40 131 t-116 142.5q-244 -123 -243 -270z" />
<glyph unicode="&#xa8;" horiz-adv-x="559" d="M20 1581q0 39 31 75t62.5 36t74.5 -80t43 -111t-18 -49t-37 -18q-45 0 -100.5 54t-55.5 93zM330 1581q0 39 29.5 75t62.5 36t75 -80t42 -111t-17.5 -49t-36.5 -18q-45 0 -100 54t-55 93z" />
<glyph unicode="&#xa9;" horiz-adv-x="1449" d="M162 633q0 279 226 499t505 220q240 0 383 -149t143 -376q0 -303 -216 -503.5t-533 -200.5q-242 0 -375 143.5t-133 366.5zM301 583.5q0 -159.5 95 -256t251 -96.5q291 0 459 161t168 454q0 172 -97.5 283.5t-238.5 111.5q-106 0 -218 -44t-206 -124t-153.5 -205 t-59.5 -284.5zM479 588q0 156 148.5 340t298.5 184q32 0 66 -37t34 -67.5t-27 -30.5q-10 0 -30.5 7t-38.5 7q-82 0 -201 -139t-119 -268q0 -37 27 -60.5t63 -23.5q88 0 183.5 42t101.5 42q29 0 29 -35q0 -43 -109.5 -107.5t-195.5 -64.5t-158 67.5t-72 143.5z" />
<glyph unicode="&#xaa;" horiz-adv-x="970" d="M190 1039.5q0 68.5 31 157.5t82 175t132 146.5t167 60.5t157.5 -76t71.5 -139q0 -25 -14 -64q2 -6 2 -22t-19.5 -109.5t-19.5 -212t-35 -118.5q-29 0 -54 45t-32 108q-125 -154 -258 -153q-80 0 -145.5 66.5t-65.5 135zM332 1051q0 -82 76.5 -82t167 105.5t135.5 266.5 q-6 39 -35 70t-70 31q-96 0 -185 -142.5t-89 -248.5z" />
<glyph unicode="&#xab;" horiz-adv-x="1345" d="M78 635q0 29 24.5 72t47.5 59q86 70 288.5 161t282.5 91q39 0 71.5 -22.5t32.5 -45.5q0 -33 -71 -53q-180 -57 -343 -132t-163 -114q0 -35 127 -96t255 -119.5t128 -83.5q0 -43 -85 -43t-340 126t-255 200zM668 647q0 25 26.5 64t53.5 57q82 59 301 131t309 72 q39 0 72.5 -26.5t33.5 -49.5q0 -35 -112 -59q-207 -43 -358.5 -97.5t-151.5 -92.5t253 -137t253 -134q0 -39 -66 -39q-121 0 -367.5 115.5t-246.5 195.5z" />
<glyph unicode="&#xac;" horiz-adv-x="1015" d="M16 948q0 41 37 41l568 -8q326 0 405 -20q49 -14 79 -72t30 -131.5t-70 -220t-161 -261t-148 -114.5q-39 0 -39 37q0 18 59 120q176 299 176 451q0 47 -121 47l-612 -6q-78 0 -140.5 48t-62.5 89z" />
<glyph unicode="&#xad;" horiz-adv-x="1228" d="M109 594q0 45 231 87t401 42q123 0 123 -51q0 -33 -66.5 -53.5t-321.5 -71.5t-278.5 -51t-56 34.5t-32.5 63.5z" />
<glyph unicode="&#xae;" horiz-adv-x="1206" d="M176 987q0 189 153.5 338.5t331 149.5t274.5 -100.5t97 -256.5q0 -207 -146.5 -343t-363.5 -136q-166 0 -256 97.5t-90 250.5zM274 961q0 -117 64 -181.5t170 -64.5q195 0 308.5 108.5t113.5 306.5q0 117 -64.5 192t-160.5 75q-158 0 -294.5 -121t-136.5 -315zM434 883.5 q0 15.5 34 134.5t40 182q-27 18 -27 41q0 18 47 35.5t104.5 17.5t99.5 -25.5t42 -74.5t-43 -88t-85 -57.5t-42 -20.5q0 -25 80 -88q16 -16 34.5 -30.5t26.5 -24.5q18 -16 19 -29q0 -20 -32 -20t-97.5 55t-95.5 106l-2 -4q-46 -157 -62 -157q-10 0 -25.5 16t-15.5 31.5z M557 1073q111 55 131 88q10 15 10 31q0 29 -61 29q-25 0 -62 -13q4 -8 4.5 -29.5t-22.5 -105.5z" />
<glyph unicode="&#xaf;" horiz-adv-x="747" d="M20 1284q0 57 359 57q194 0 271 -9t77 -38.5t-61.5 -43t-295 -40t-239.5 -26.5q-39 0 -75 34.5t-36 65.5z" />
<glyph unicode="&#xb0;" horiz-adv-x="694" d="M162 1085q0 143 110.5 271.5t259.5 128.5q98 0 158 -66.5t60 -169.5q0 -143 -111 -271t-258 -128q-98 0 -158.5 66.5t-60.5 168.5zM326 1119.5q0 -64.5 25.5 -97.5t66.5 -33q69 0 117.5 76t48.5 140.5t-24.5 99t-65.5 34.5q-70 0 -119 -77.5t-49 -142z" />
<glyph unicode="&#xb1;" horiz-adv-x="1228" d="M162 236.5q0 33.5 41 33.5q176 0 471 20.5t340 20.5q135 0 135 -39t-111.5 -70.5t-267.5 -45.5q-326 -33 -498 -33q-41 0 -75.5 40t-34.5 73.5zM211 916.5q0 39.5 53 39.5h217q59 0 158 5q29 205 29 323q0 53 36.5 53t93 -52t56.5 -89t-37 -221q270 22 295 22 q125 0 125 -51q0 -80 -455 -131q-68 -344 -94 -391q-12 -20 -24 -23q-31 0 -63 38t-32 70t43 290q-168 -10 -276 -11q-45 0 -85 44.5t-40 84z" />
<glyph unicode="&#xb2;" horiz-adv-x="630" d="M127 824.5q0 27.5 59.5 78.5t129 104.5t129 130t59 147.5t-61.5 71q-55 0 -106 -62q-16 -23 -28.5 -22.5t-44.5 23t-32 38.5q0 43 64.5 92.5t145.5 49.5t130.5 -53.5t49.5 -135.5q0 -119 -97.5 -233.5t-244.5 -208.5q233 39 274 39q76 0 76 -38t-153.5 -75t-235.5 -37 q-35 0 -74 32t-39 59.5z" />
<glyph unicode="&#xb3;" horiz-adv-x="636" d="M113 782q0 20 96 45t192.5 63t96.5 89q0 29 -57.5 43t-117 27.5t-61.5 40.5v2q0 41 131 106q51 25 92 62.5t41 74.5q0 33 -41 33t-100 -35t-75.5 -35t-42 26t-25.5 42q0 37 84 73t153.5 36t115.5 -47.5t46 -101.5t-55.5 -109.5t-132.5 -98.5q178 -39 178 -139 q0 -94 -134.5 -166t-259 -72t-124.5 41z" />
<glyph unicode="&#xb4;" horiz-adv-x="448" d="M20 1410q0 28 25 60.5t76 82t80.5 78t46 45t35.5 32.5q35 29 62.5 29t55 -39t27.5 -66.5t-5 -41t-13.5 -22.5t-28 -24.5t-35.5 -26t-51 -32t-58.5 -37.5t-50 -36.5t-39.5 -29.5q-53 -35 -74.5 -34.5t-37 17.5t-15.5 45z" />
<glyph unicode="&#xb5;" horiz-adv-x="1177" d="M-82 -347.5q0 19.5 33 95.5q145 348 211.5 531.5t126 380t95.5 292t62.5 95.5t65.5 -24t39 -42q0 -41 -43 -162q-123 -360 -123 -549q0 -33 19.5 -54t48.5 -21q82 0 196.5 151.5t201.5 335.5t114 307q12 58 43 58q35 0 75.5 -53.5t40.5 -102.5q0 -25 -102 -356.5 t-127 -417.5t-74 -86q-61 0 -61 92q0 61 45 225q-197 -317 -367 -317q-57 0 -96 34.5t-49 88.5q-14 -31 -82 -189t-105 -231q-70 -143 -96 -144q-31 0 -61.5 21.5t-30.5 41z" />
<glyph unicode="&#xb6;" horiz-adv-x="1067" d="M143 954q0 158 105.5 342.5t255.5 249.5q68 29 194.5 47.5t197.5 18.5t100.5 -11.5t64.5 -63.5t35 -103q-2 -311 -185 -996q-113 -408 -153 -407q-25 0 -57.5 28.5t-32.5 54t58 234.5t129 534.5t93 606.5q-68 -20 -192 -39q2 -8 2 -23q-2 -313 -185 -989 q-109 -408 -153 -407q-27 0 -58.5 28.5t-31.5 53t30 139.5q123 458 150 577q-96 -76 -172 -75.5t-135.5 66t-59.5 134.5z" />
<glyph unicode="&#xb7;" horiz-adv-x="485" d="M115 680q0 45 35.5 88t73.5 43t88 -100.5t50 -151.5q0 -16 -22.5 -35.5t-42.5 -19.5q-51 0 -116.5 65.5t-65.5 110.5z" />
<glyph unicode="&#xb8;" horiz-adv-x="516" d="M20 -383q0 27 54.5 38t132.5 29.5t115 57.5q-14 18 -97.5 35.5t-83.5 38t16.5 60.5t42 92t38 89t68.5 37t56 -47t-65 -162h6q61 0 127 -36.5t66 -79.5q-2 -90 -127 -145.5t-258 -55.5q-39 0 -65 14.5t-26 34.5z" />
<glyph unicode="&#xb9;" horiz-adv-x="315" d="M160 789.5q0 15.5 39 247t39 407.5q0 39 24.5 39t64.5 -34t40 -54q0 -72 -46.5 -335t-63.5 -300t-34.5 -37t-40 25.5t-22.5 41z" />
<glyph unicode="&#xba;" horiz-adv-x="925" d="M221 1135q0 168 109.5 306t267.5 138q104 0 165.5 -95t61.5 -210q0 -154 -111.5 -293t-281.5 -139q-90 0 -150.5 90t-60.5 203zM360 1126.5q0 -110.5 78 -168.5q111 18 180.5 106.5t69.5 217.5t-92 174q-111 -26 -173.5 -122.5t-62.5 -207z" />
<glyph unicode="&#xbb;" horiz-adv-x="1705" d="M174 358q0 31 140.5 94.5t281.5 126t141 93.5q0 39 -128 91t-269 79q-80 14 -80 47q0 20 35 51t61 31q115 0 334 -105.5t219 -199.5q0 -80 -278.5 -211t-399.5 -131q-57 0 -57 34zM754 339q0 32 277.5 160t277.5 163q0 43 -125 117.5t-256 111.5q-78 24 -78 53 q0 20 29.5 47t56.5 27q102 -2 319.5 -132t217.5 -222q0 -59 -43 -99q-90 -72 -308.5 -165t-293 -93t-74.5 32z" />
<glyph unicode="&#xbc;" horiz-adv-x="1603" d="M141 56.5q0 25.5 62.5 129t234.5 351.5q395 565 690 979q31 35 50.5 35.5t48 -45.5t28.5 -89t-74.5 -151.5t-231 -311t-242.5 -323.5q-276 -401 -372.5 -530.5t-127.5 -129.5q-16 0 -41 30t-25 55.5zM244 687.5q0 19.5 49 309t49 523.5q0 41 32 41t79 -40t47 -65 q0 -127 -51 -397q-8 -43 -23.5 -131t-24 -130t-21.5 -94.5t-24.5 -74t-31 -21.5t-50 30t-30.5 49.5zM817 420q0 82 78 218t165 238.5t114.5 102.5t54 -26.5t26.5 -49t-71 -115.5q-221 -279 -221 -358q0 -33 13 -47t49 -14t80 12t95 32.5t70 26.5q12 86 12 183q0 45 41 45 q25 0 66 -39t41 -70q0 -129 -79 -390t-134 -261q-23 0 -39.5 24.5t-16.5 50t11.5 65.5t32 108.5t34.5 126.5q-111 -45 -211 -45t-155.5 50t-55.5 132z" />
<glyph unicode="&#xbd;" horiz-adv-x="1611" d="M113 55.5q0 24.5 45 101t143 220t203 291.5q391 553 588 835q29 43 38 46t15 3q23 0 52.5 -45t29.5 -89t-75 -153.5t-231.5 -311t-242.5 -322.5q-279 -403 -375 -531.5t-125 -128.5q-16 0 -40.5 30t-24.5 54.5zM215 695.5q0 27.5 25 150.5q74 369 73 674q0 41 32 41 t79 -40t47 -65q-2 -150 -53 -397q-6 -35 -16.5 -95.5t-16.5 -95t-15.5 -82t-16.5 -74t-16 -54t-17.5 -39t-26 -11.5t-48 30t-30.5 57.5zM762 86q0 23 49 67t119.5 99t141.5 117.5t120 139.5t49 148q0 100 -78 101q-53 0 -108.5 -52.5t-63.5 -52.5q-20 0 -58 24.5t-38 45.5 q0 55 84 117.5t183.5 62.5t163 -68.5t63.5 -166.5q0 -158 -133.5 -309.5t-329.5 -268.5q332 53 379 53q94 0 94 -41q0 -47 -196.5 -93t-301.5 -46q-43 0 -91 39t-48 84z" />
<glyph unicode="&#xbe;" horiz-adv-x="1794" d="M176 741q0 25 248 82q92 23 170 68t78 102q0 39 -76 56.5t-152.5 31.5t-76.5 47v7q0 41 170 131q61 35 114.5 84t53.5 96t-53.5 47t-131.5 -44t-97.5 -44t-50 29.5t-30.5 50.5q0 45 106.5 91t192.5 46t145.5 -59.5t59.5 -126t-74 -141t-174 -130.5q106 -18 171 -64 t65 -112q0 -117 -171 -208t-329 -91t-158 51zM369 55.5q0 24.5 45 101t143 220t203 291.5q391 553 491.5 697t107.5 154.5l9 13.5t7 8t9 7q4 4 21.5 4t47.5 -45t30 -89t-74 -152.5t-232.5 -313t-242.5 -321.5q-279 -403 -375 -531.5t-125 -128.5q-16 0 -40.5 30t-24.5 54.5z M1042 421q0 81 78 217t166 238.5t116 102.5t54.5 -26.5t26.5 -49t-74 -115.5q-219 -274 -219 -358q0 -33 13.5 -47t48 -14t77.5 11t98.5 33.5t69.5 26.5q12 86 12 183q0 45 41 45q25 0 64 -39t39 -70q0 -127 -80 -389t-133 -262q-23 0 -38.5 24.5t-15.5 50t12.5 66.5 t33 108.5t34.5 125.5q-115 -45 -212 -45t-154.5 51t-57.5 132z" />
<glyph unicode="&#xbf;" horiz-adv-x="778" d="M2 -88q0 84 55.5 176t126.5 162q197 190 252.5 316t71.5 142.5t31 16.5q53 0 53 -131t-146 -283q-61 -66 -121.5 -129t-102.5 -131.5t-42 -130t44 -101.5t107.5 -40t112 39t48.5 98l-5 53q0 25 25 36t45.5 11t59 -47t38.5 -80q0 -113 -100 -200.5t-234.5 -87.5t-226.5 84 t-92 227zM504 1169q0 14 20.5 33t40.5 19q49 0 112.5 -63.5t63.5 -107.5t-33.5 -86t-69.5 -42t-85 98t-49 149z" />
<glyph unicode="&#xc0;" d="M86 158q0 14 119 293q-6 -2 -30.5 -2t-56.5 26.5t-32 66.5t203 105q33 74 66.5 165t120.5 298t106.5 256t76 89t109.5 40q63 0 113.5 -202.5t81.5 -501.5q57 6 98 6q94 -1 94 -54q0 -39 -180 -90q16 -213 16 -362q0 -258 -67 -258q-37 0 -56.5 43t-29.5 149 q-31 367 -33 385q-299 -78 -395 -106q-180 -471 -214 -471t-72 40t-38 85zM483 700q154 41 308 66q-37 350 -72 524q-105 -242 -236 -590zM504 1886.5q0 24.5 30.5 62.5t67.5 38q31 0 78 -56q37 -43 119 -128t91 -104.5t9 -39t-16.5 -36.5t-36 -17t-40 13t-60 44t-63.5 46 t-48.5 32.5t-37.5 27t-31.5 22.5t-28 22.5t-17.5 19.5t-12 19.5t-4 34z" />
<glyph unicode="&#xc1;" d="M86 158q0 14 119 293q-6 -2 -30.5 -2t-56.5 26.5t-32 66.5t203 105q33 74 66.5 165t120.5 298t106.5 256t76 89t109.5 40q63 0 113.5 -202.5t81.5 -501.5q57 6 98 6q94 -1 94 -54q0 -39 -180 -90q16 -213 16 -362q0 -258 -67 -258q-37 0 -56.5 43t-29.5 149 q-31 367 -33 385q-299 -78 -395 -106q-180 -471 -214 -471t-72 40t-38 85zM483 700q154 41 308 66q-37 350 -72 524q-105 -242 -236 -590zM725 1666q0 28 25.5 59.5t101.5 109.5q61 55 88 84t47 43q37 31 63.5 31t53 -38t26.5 -67.5t-5 -44t-24.5 -31t-35.5 -26.5 q-145 -98 -185 -127t-55.5 -38t-26 -12t-26.5 -3t-31.5 16t-15.5 44z" />
<glyph unicode="&#xc2;" d="M86 158q0 14 119 293q-6 -2 -30.5 -2t-56.5 26.5t-32 66.5t203 105q33 74 66.5 165t120.5 298t106.5 256t76 89t109.5 40q63 0 113.5 -202.5t81.5 -501.5q57 6 98 6q94 -1 94 -54q0 -39 -180 -90q16 -213 16 -362q0 -258 -67 -258q-37 0 -56.5 43t-29.5 149 q-31 367 -33 385q-299 -78 -395 -106q-180 -471 -214 -471t-72 40t-38 85zM446 1700q0 37 33 72.5t83 64.5t83 49.5t53.5 32.5t42.5 25q49 25 68.5 24.5t37 -10.5t27.5 -23l48 -60t62 -73t42 -48t31 -38q33 -43 33 -67q0 -49 -52 -50q-33 0 -80 39t-73.5 72t-79.5 100 q-57 -29 -119.5 -78t-103.5 -77.5t-69 -28.5t-47.5 18.5t-19.5 55.5zM483 700q154 41 308 66q-37 350 -72 524q-105 -242 -236 -590z" />
<glyph unicode="&#xc3;" d="M86 158q0 14 119 293q-6 -2 -30.5 -2t-56.5 26.5t-32 66.5t203 105q33 74 66.5 165t120.5 298t106.5 256t76 89t109.5 40q63 0 113.5 -202.5t81.5 -501.5q57 6 98 6q94 -1 94 -54q0 -39 -180 -90q16 -213 16 -362q0 -258 -67 -258q-37 0 -56.5 43t-29.5 149 q-31 367 -33 385q-299 -78 -395 -106q-180 -471 -214 -471t-72 40t-38 85zM454.5 1680.5q0.5 68.5 80 151.5t161.5 83q47 0 85 -24.5t57 -55.5q51 -82 88 -88q35 6 79 74.5t82 68.5q51 0 51.5 -70.5t-64 -146.5t-142.5 -76q-113 0 -227 183q-47 -25 -96.5 -96.5t-88.5 -71.5 q-66 0 -65.5 68.5zM483 700q154 41 308 66q-37 350 -72 524q-105 -242 -236 -590z" />
<glyph unicode="&#xc4;" d="M86 158q0 14 119 293q-6 -2 -30.5 -2t-56.5 26.5t-32 66.5t203 105q33 74 66.5 165t120.5 298t106.5 256t76 89t109.5 40q63 0 113.5 -202.5t81.5 -501.5q57 6 98 6q94 -1 94 -54q0 -39 -180 -90q16 -213 16 -362q0 -258 -67 -258q-37 0 -56.5 43t-29.5 149 q-31 367 -33 385q-299 -78 -395 -106q-180 -471 -214 -471t-72 40t-38 85zM483 700q154 41 308 66q-37 350 -72 524q-105 -242 -236 -590zM526 1784q0 39 30 74.5t62.5 35.5t74.5 -79.5t42 -110.5t-17.5 -49.5t-35.5 -18.5q-45 0 -100.5 54.5t-55.5 93.5zM834 1784 q0 39 30.5 74.5t62 35.5t74.5 -79.5t43 -111.5t-18.5 -49.5t-36.5 -17.5q-45 0 -100 54.5t-55 93.5z" />
<glyph unicode="&#xc5;" d="M86 158q0 14 119 293q-6 -2 -30.5 -2t-56.5 26.5t-32 66.5t203 105q33 74 66.5 165t120.5 298t106.5 256t76 89t109.5 40q63 0 113.5 -202.5t81.5 -501.5q57 6 98 6q94 -1 94 -54q0 -39 -180 -90q16 -213 16 -362q0 -258 -67 -258q-37 0 -56.5 43t-29.5 149 q-31 367 -33 385q-299 -78 -395 -106q-180 -471 -214 -471t-72 40t-38 85zM483 700q154 41 308 66q-37 350 -72 524q-105 -242 -236 -590zM633 1763q0 80 60.5 148.5t136 68.5t121.5 -52t46 -131t-60 -147.5t-135 -68.5t-122 51t-47 131zM754 1769.5q0 -36.5 15 -58 t40 -21.5t46.5 28.5t21.5 66.5t-15.5 59.5t-40 21.5t-46 -30t-21.5 -66.5z" />
<glyph unicode="&#xc6;" horiz-adv-x="1701" d="M37 127q0 31 36 118t102.5 241.5t185 452.5t167.5 384q43 72 177.5 96.5t389.5 24.5t389 -10.5t177 -26.5t43 -43q0 -72 -463 -72h-106q6 -18 6 -39q0 -158 -84 -442q215 23 305 23q162 0 162 -64q0 -35 -97.5 -54.5t-229.5 -35.5t-140 -17t-21.5 -2.5t-23.5 -3.5 q-104 -350 -105 -387q0 -68 58 -67q236 0 520 76q92 25 106 24q29 0 29 -43q0 -74 -226.5 -151.5t-437.5 -77.5q-94 0 -164.5 55t-70.5 129q0 111 94 416q-92 -12 -238.5 -36t-181.5 -26q-170 -414 -205.5 -478t-56.5 -64q-33 0 -64.5 34.5t-31.5 65.5zM461 725 q157 32 401 63q94 317 101 500q-236 -12 -263 -45q-43 -45 -239 -518z" />
<glyph unicode="&#xc7;" horiz-adv-x="1234" d="M135 440q0 193 126 435.5t323.5 418.5t380.5 176q51 0 107 -67.5t56 -111.5t-14 -44t-57 15.5t-80 15.5q-106 0 -261 -133t-272.5 -337t-117.5 -376q0 -94 57 -146.5t152.5 -52.5t195.5 28t162 63q166 88 182 88q35 0 35 -45t-91 -121t-227.5 -137.5t-246.5 -65.5 q-25 -59 -53 -111h6q63 0 127.5 -35.5t64.5 -80.5q-2 -90 -127 -145.5t-258 -55.5q-39 0 -64.5 15.5t-25.5 38t54.5 33.5t132 30.5t114.5 58.5q-12 18 -96 35.5t-84 40t36 97.5t46 102q-115 45 -199 151.5t-84 222.5z" />
<glyph unicode="&#xc8;" horiz-adv-x="1198" d="M129 225q0 84 60.5 287t122 432.5t61.5 386.5q0 23 8 47q35 76 446.5 76t411.5 -59q0 -41 -88 -56q-74 -14 -195.5 -25t-171 -16.5t-237.5 -37.5v-7q0 -139 -76 -419q12 -2 83 -2.5t189.5 10t179 10.5t60.5 -29q0 -72 -168 -106.5t-389 -34.5q-111 -350 -111 -424 q0 -25 15.5 -40t40.5 -15q236 0 520 76q92 25 106 24q31 0 31 -43q0 -74 -226.5 -151.5t-436.5 -77.5q-94 0 -165 55t-71 139zM582 1886.5q0 24.5 30.5 62.5t57 38t44 -13.5t59.5 -59.5t113.5 -121t81 -94.5t9.5 -39t-16.5 -36.5t-36 -17t-41 12t-62.5 44t-61.5 46t-47 33.5 t-38.5 28t-31.5 22.5t-27 21.5t-17.5 18.5t-13 20.5t-3 34z" />
<glyph unicode="&#xc9;" horiz-adv-x="1198" d="M129 225q0 84 60.5 287t122 432.5t61.5 386.5q0 23 8 47q35 76 446.5 76t411.5 -59q0 -41 -88 -56q-74 -14 -195.5 -25t-171 -16.5t-237.5 -37.5v-7q0 -139 -76 -419q12 -2 83 -2.5t189.5 10t179 10.5t60.5 -29q0 -72 -168 -106.5t-389 -34.5q-111 -350 -111 -424 q0 -25 15.5 -40t40.5 -15q236 0 520 76q92 25 106 24q31 0 31 -43q0 -74 -226.5 -151.5t-436.5 -77.5q-94 0 -165 55t-71 139zM801 1666q0 28 25.5 60.5t75.5 82t80 78t46 45t35 30.5q35 31 63.5 31t55 -38t26.5 -67.5t-5 -44t-24.5 -31t-35.5 -26.5q-70 -47 -108 -71.5 t-66.5 -46t-39.5 -29t-27.5 -17.5t-27 -13t-25.5 -3t-31.5 16t-16.5 44z" />
<glyph unicode="&#xca;" horiz-adv-x="1198" d="M129 225q0 84 60.5 287t122 432.5t61.5 386.5q0 23 8 47q35 76 446.5 76t411.5 -59q0 -41 -88 -56q-74 -14 -195.5 -25t-171 -16.5t-237.5 -37.5v-7q0 -139 -76 -419q12 -2 83 -2.5t189.5 10t179 10.5t60.5 -29q0 -72 -168 -106.5t-389 -34.5q-111 -350 -111 -424 q0 -25 15.5 -40t40.5 -15q236 0 520 76q92 25 106 24q31 0 31 -43q0 -74 -226.5 -151.5t-436.5 -77.5q-94 0 -165 55t-71 139zM522 1700q0 37 33 72.5t83 64.5t83 49.5t53.5 32.5t44.5 25q45 25 65.5 24.5t38 -10.5t28 -22.5t34 -42t35.5 -44t42 -47.5t42 -48t31 -38 q33 -43 32.5 -67.5t-15.5 -37t-42 -12.5t-74 39t-73.5 72t-79.5 100q-57 -29 -120 -78t-104 -77.5t-69.5 -28.5t-48 18.5t-19.5 55.5z" />
<glyph unicode="&#xcb;" horiz-adv-x="1198" d="M129 225q0 84 60.5 287t122 432.5t61.5 386.5q0 23 8 47q35 76 446.5 76t411.5 -59q0 -41 -88 -56q-74 -14 -195.5 -25t-171 -16.5t-237.5 -37.5v-7q0 -139 -76 -419q12 -2 83 -2.5t189.5 10t179 10.5t60.5 -29q0 -72 -168 -106.5t-389 -34.5q-111 -350 -111 -424 q0 -25 15.5 -40t40.5 -15q236 0 520 76q92 25 106 24q31 0 31 -43q0 -74 -226.5 -151.5t-436.5 -77.5q-94 0 -165 55t-71 139zM602 1784q0 39 31 74.5t62.5 35.5t74.5 -79.5t43 -111.5t-17.5 -49.5t-37.5 -17.5q-45 0 -100.5 54.5t-55.5 93.5zM911 1784q0 39 31 74.5 t62.5 35.5t74.5 -79.5t43 -110.5t-18.5 -49.5t-36.5 -18.5q-45 0 -100.5 54.5t-55.5 93.5z" />
<glyph unicode="&#xcc;" horiz-adv-x="634" d="M139 178q0 41 122 572.5t124 658.5q0 35 9 48t39 13t78 -63.5t48 -136t-147 -672.5q-14 -55 -39 -158.5t-39.5 -159t-30.5 -120.5q-35 -121 -59.5 -121t-64.5 49t-40 90zM279 1886.5q0 24.5 30.5 62.5t65.5 38q31 0 78 -56q37 -43 119.5 -128t92 -104.5t9.5 -39 t-17.5 -36.5t-36 -17t-40 12t-62.5 44t-62.5 47t-47 32.5t-39 27t-30.5 22.5t-26.5 22.5t-18.5 19.5t-12 19.5t-3 34z" />
<glyph unicode="&#xcd;" horiz-adv-x="634" d="M139 178q0 41 122 572.5t124 658.5q0 35 9 48t39 13t78 -63.5t48 -136t-147 -672.5q-14 -55 -39 -158.5t-39.5 -159t-30.5 -120.5q-35 -121 -59.5 -121t-64.5 49t-40 90zM498 1666q0 28 25.5 59.5t101.5 109.5q49 45 82.5 79t52.5 48q35 31 62.5 31t55 -39t27.5 -66.5 t-5 -41t-13 -22.5t-27.5 -24.5t-36 -26t-51.5 -32t-58.5 -37.5t-50 -36.5t-39 -29t-26.5 -16.5q-27 -16 -47.5 -16t-36.5 16t-16 44z" />
<glyph unicode="&#xce;" horiz-adv-x="634" d="M139 178q0 41 122 572.5t124 658.5q0 35 9 48t39 13t78 -63.5t48 -136t-147 -672.5q-14 -55 -39 -158.5t-39.5 -159t-30.5 -120.5q-35 -121 -59.5 -121t-64.5 49t-40 90zM219 1700q0 37 33 72.5t83 64.5t83 49.5t53.5 32.5t44 24.5t40.5 18.5t31.5 6t32 -10t27.5 -23 q16 -20 49 -61t61.5 -71.5t42 -48t31.5 -40.5q33 -41 33 -65q0 -49 -53 -50q-33 0 -80 39t-73.5 72t-79.5 100q-57 -31 -120 -79t-103 -76.5t-68.5 -28.5t-48 18.5t-19.5 55.5z" />
<glyph unicode="&#xcf;" horiz-adv-x="634" d="M139 178q0 41 122 572.5t124 658.5q0 35 9 48t39 13t78 -63.5t48 -136t-147 -672.5q-14 -55 -39 -158.5t-39.5 -159t-30.5 -120.5q-35 -121 -59.5 -121t-64.5 49t-40 90zM299 1784q0 39 30.5 74.5t62.5 35.5t75 -79.5t43 -110.5t-18.5 -49.5t-36.5 -18.5 q-45 0 -100.5 54.5t-55.5 93.5zM608 1784q0 39 30 74.5t62.5 35.5t74.5 -79.5t42 -110.5t-17.5 -49.5t-35.5 -18.5q-45 0 -100.5 54.5t-55.5 93.5z" />
<glyph unicode="&#xd0;" horiz-adv-x="1267" d="M29 631q0 47 90 65.5t205 34.5q106 383 116 516q-66 29 -104.5 72t-38.5 82t41 39q193 0 411 -101.5t375.5 -279.5t157.5 -367q0 -123 -173 -292t-400.5 -288.5t-376.5 -119.5q-39 0 -89 66.5t-50 129t83 375.5q-102 -8 -125.5 -8t-72.5 20.5t-49 55.5zM371 176 q141 18 316 124t291 225.5t116 189.5q0 127 -151.5 274.5t-352.5 214.5q10 -35 10 -67q0 -86 -86 -385q27 2 73 2t89 -21.5t43 -56.5t-66.5 -52.5t-183.5 -35.5l-35 -115q-39 -135 -63 -297z" />
<glyph unicode="&#xd1;" horiz-adv-x="1386" d="M109 176q0 49 133 576.5t137 658.5q0 66 35 66q23 0 62.5 -38t58.5 -83q330 -856 417 -1049q133 352 178 842q21 226 21 244q4 88 42 88t83 -47.5t45 -83.5q0 -168 -52 -477.5t-139.5 -573.5t-164.5 -264q-27 0 -61 26.5t-52 65.5q-61 143 -363 909 q-61 -238 -135.5 -537.5t-99.5 -381.5t-43 -82q-27 0 -64.5 46t-37.5 95zM549 1673q0 76 80 159t162 83q49 0 86.5 -24.5t56.5 -55.5q51 -82 88 -88q35 6 79 74.5t83 68.5q51 0 51 -70.5t-65.5 -146.5t-141.5 -76q-113 0 -229 183q-39 -20 -71 -63.5t-56.5 -74t-55 -30.5 t-49 16t-18.5 45z" />
<glyph unicode="&#xd2;" horiz-adv-x="1255" d="M111 438q0 186 68.5 379t172 336t228.5 234.5t231 91.5q172 0 286.5 -157t114.5 -353.5t-108.5 -412.5t-289.5 -368.5t-365 -152.5q-135 0 -236.5 133t-101.5 270zM297 451q0 -113 49 -183.5t115 -70.5q102 0 236 120.5t230.5 298t96.5 335t-60.5 256t-142.5 98.5 t-204.5 -127t-221 -333t-98.5 -394zM713 1886.5q0 24.5 30.5 62.5t65.5 38q31 0 78 -56q37 -43 120 -128t92 -104.5t9 -39t-16.5 -36.5t-36 -17t-41 12t-62.5 44t-61.5 46t-47 33.5t-38.5 28t-31.5 22.5t-27 21.5t-17.5 18.5t-13 20.5t-3 34z" />
<glyph unicode="&#xd3;" horiz-adv-x="1255" d="M111 438q0 186 68.5 379t172 336t228.5 234.5t231 91.5q172 0 286.5 -157t114.5 -353.5t-108.5 -412.5t-289.5 -368.5t-365 -152.5q-135 0 -236.5 133t-101.5 270zM297 451q0 -113 49 -183.5t115 -70.5q102 0 236 120.5t230.5 298t96.5 335t-60.5 256t-142.5 98.5 t-204.5 -127t-221 -333t-98.5 -394zM932 1666q0 28 25.5 60.5t75.5 82t80 78t46.5 45t34.5 30.5q35 31 63.5 31t55 -38t26.5 -67.5t-5 -44t-24.5 -31t-35.5 -26.5q-70 -47 -110 -72.5t-66.5 -45t-38.5 -29t-27 -17.5q-27 -16 -47 -16t-36.5 16t-16.5 44z" />
<glyph unicode="&#xd4;" horiz-adv-x="1255" d="M111 438q0 186 68.5 379t172 336t228.5 234.5t231 91.5q172 0 286.5 -157t114.5 -353.5t-108.5 -412.5t-289.5 -368.5t-365 -152.5q-135 0 -236.5 133t-101.5 270zM297 451q0 -113 49 -183.5t115 -70.5q102 0 236 120.5t230.5 298t96.5 335t-60.5 256t-142.5 98.5 t-204.5 -127t-221 -333t-98.5 -394zM653 1700q0 37 33 72.5t83 64.5t83 49.5t53.5 32.5t44 24.5t41 18.5t31.5 6t31.5 -10t28 -22.5t34 -42t35.5 -44t42 -47.5t42 -48t31 -38q33 -43 32 -67q0 -49 -53 -50q-33 0 -79 39t-72.5 72t-79.5 100q-57 -29 -120 -78t-103.5 -77.5 t-69.5 -28.5t-48.5 18.5t-19.5 55.5z" />
<glyph unicode="&#xd5;" horiz-adv-x="1255" d="M111 438q0 186 68.5 379t172 336t228.5 234.5t231 91.5q172 0 286.5 -157t114.5 -353.5t-108.5 -412.5t-289.5 -368.5t-365 -152.5q-135 0 -236.5 133t-101.5 270zM297 451q0 -113 49 -183.5t115 -70.5q102 0 236 120.5t230.5 298t96.5 335t-60.5 256t-142.5 98.5 t-204.5 -127t-221 -333t-98.5 -394zM661.5 1680.5q0.5 68.5 80 151.5t161.5 83q49 0 87 -24.5t57 -55.5q51 -82 88 -88q35 6 78.5 74.5t82.5 68.5q51 0 51.5 -70.5t-65 -146.5t-141.5 -76q-113 0 -230 183q-39 -20 -70.5 -63.5t-56 -74t-55.5 -30.5q-68 0 -67.5 68.5z" />
<glyph unicode="&#xd6;" horiz-adv-x="1255" d="M111 438q0 186 68.5 379t172 336t228.5 234.5t231 91.5q172 0 286.5 -157t114.5 -353.5t-108.5 -412.5t-289.5 -368.5t-365 -152.5q-135 0 -236.5 133t-101.5 270zM297 451q0 -113 49 -183.5t115 -70.5q102 0 236 120.5t230.5 298t96.5 335t-60.5 256t-142.5 98.5 t-204.5 -127t-221 -333t-98.5 -394zM733 1784q0 39 31 74.5t62.5 35.5t74.5 -79.5t43 -111.5t-17.5 -49.5t-37.5 -17.5q-45 0 -100.5 54.5t-55.5 93.5zM1042 1784q0 39 31 74.5t62.5 35.5t74.5 -79.5t43 -110.5t-18 -49.5t-37 -18.5q-45 0 -100.5 54.5t-55.5 93.5z" />
<glyph unicode="&#xd7;" horiz-adv-x="999" d="M84 338.5q0 21.5 40 57.5t131 113t167 150q-104 141 -176 264.5t-72 162t37 38.5q57 0 118.5 -23.5t61.5 -56.5q0 -70 146 -266q225 246 299 301q59 45 89.5 45t67.5 -31.5t37 -60.5q0 -12 -53 -62t-160.5 -149.5t-181.5 -171.5q29 -37 74 -93t71.5 -91t55.5 -72 q53 -72 53 -94q0 -45 -51 -45q-94 0 -320 281q-236 -229 -275.5 -255t-64 -26t-59.5 31.5t-35 53z" />
<glyph unicode="&#xd8;" horiz-adv-x="1255" d="M74 91.5q0 25.5 92 152.5q-55 100 -55 194q0 186 68.5 379t172 336t228.5 234.5t231 91.5q152 0 268 -127q109 113 150 112q49 0 49 -50t-88 -146l-31 -35q63 -127 63.5 -294t-108 -383t-289 -368.5t-364.5 -152.5q-117 0 -217 104q-90 -109 -115 -108.5t-40 18t-15 43z M297 451q0 -27 2 -39q37 47 125 153.5t270.5 331.5t266.5 322q-61 86 -141.5 86t-203 -127t-221 -333t-98.5 -394zM350 270q51 -74 121 -73q102 0 236.5 120.5t230.5 298t96 322.5q0 70 -14 137q-340 -389 -670 -805z" />
<glyph unicode="&#xd9;" horiz-adv-x="1212" d="M164 434q0 162 86 509t86 468q0 35 8 48.5t38 13.5t80 -54.5t50 -127t-84 -396.5t-84 -439.5t43 -187t110.5 -71.5t149.5 77.5t152.5 203.5t119 307.5t48.5 365.5q0 86 -9.5 172t-9.5 107q0 43 37 43q47 0 108.5 -71t61.5 -181q0 -315 -92 -592t-248 -441.5t-332 -164.5 q-129 0 -224 124.5t-95 286.5zM467 1886.5q0 24.5 30.5 62.5t57.5 38t44 -13.5t59 -59.5t114 -121t81 -94.5t9 -39t-16.5 -36.5t-35.5 -17t-40.5 12t-62.5 44t-61.5 46t-47.5 33.5t-39 28t-31.5 22.5t-26.5 21.5t-17.5 18.5t-13.5 20.5t-3 34z" />
<glyph unicode="&#xda;" horiz-adv-x="1212" d="M164 434q0 162 86 509t86 468q0 35 8 48.5t38 13.5t80 -54.5t50 -127t-84 -396.5t-84 -439.5t43 -187t110.5 -71.5t149.5 77.5t152.5 203.5t119 307.5t48.5 365.5q0 86 -9.5 172t-9.5 107q0 43 37 43q47 0 108.5 -71t61.5 -181q0 -315 -92 -592t-248 -441.5t-332 -164.5 q-129 0 -224 124.5t-95 286.5zM686 1666q0 28 25.5 60.5t76 82t80 78t46 45t34.5 30.5q35 31 63.5 31t55.5 -38t27 -67.5t-5.5 -44t-25 -31t-35.5 -26.5q-70 -47 -107.5 -71.5t-66.5 -46t-40 -29t-28 -17.5q-27 -16 -47 -16t-36.5 16t-16.5 44z" />
<glyph unicode="&#xdb;" horiz-adv-x="1212" d="M164 434q0 162 86 509t86 468q0 35 8 48.5t38 13.5t80 -54.5t50 -127t-84 -396.5t-84 -439.5t43 -187t110.5 -71.5t149.5 77.5t152.5 203.5t119 307.5t48.5 365.5q0 86 -9.5 172t-9.5 107q0 43 37 43q47 0 108.5 -71t61.5 -181q0 -315 -92 -592t-248 -441.5t-332 -164.5 q-129 0 -224 124.5t-95 286.5zM408 1700q0 37 32.5 72.5t82.5 64.5t83 49.5t53.5 32.5t44 24.5t41 18.5t32 6t31.5 -10t27.5 -22.5t34 -42t36 -44t42 -47.5t41.5 -48t31 -38q33 -43 33 -67.5t-15.5 -37t-42 -12.5t-74 39t-74 72t-79.5 100q-57 -29 -119.5 -78t-103.5 -77.5 t-70 -28.5t-48 18.5t-19 55.5z" />
<glyph unicode="&#xdc;" horiz-adv-x="1212" d="M164 434q0 162 86 509t86 468q0 35 8 48.5t38 13.5t80 -54.5t50 -127t-84 -396.5t-84 -439.5t43 -187t110.5 -71.5t149.5 77.5t152.5 203.5t119 307.5t48.5 365.5q0 86 -9.5 172t-9.5 107q0 43 37 43q47 0 108.5 -71t61.5 -181q0 -315 -92 -592t-248 -441.5t-332 -164.5 q-129 0 -224 124.5t-95 286.5zM487 1784q0 39 31 74.5t62.5 35.5t74.5 -79.5t43 -111.5t-17 -49.5t-38 -17.5q-45 0 -100.5 54.5t-55.5 93.5zM797 1784q0 39 30.5 74.5t62.5 35.5t75 -79.5t43 -110.5t-18.5 -49.5t-37.5 -18.5q-45 0 -100 54.5t-55 93.5z" />
<glyph unicode="&#xdd;" horiz-adv-x="1177" d="M188 1323q0 143 82 143q33 0 52.5 -63.5t48 -182t76 -218t113 -169t110.5 -69.5q37 0 134 175t198.5 351t144.5 176t69.5 -30.5t26.5 -73.5t-78 -172t-209 -341t-262 -460t-180 -309.5t-80 -61.5q-45 0 -45 74q0 57 57 174q18 35 28.5 58.5t33 66.5t35 66.5t38 74 t37.5 72.5q-121 31 -222 153t-154.5 272.5t-53.5 293.5zM698 1666q0 28 26 59.5t101 109.5q49 45 83 79t53 48q35 31 62.5 31t55 -39t27.5 -66.5t-5 -41t-13.5 -22.5t-28 -24.5t-35.5 -26t-51 -32t-58.5 -37.5t-50 -36.5t-39 -29t-26.5 -16.5q-27 -16 -47.5 -16t-37 16 t-16.5 44z" />
<glyph unicode="&#xde;" horiz-adv-x="1030" d="M104 166q0 43 56 256q164 651 164 909q0 35 9 49.5t43 14.5t86 -53.5t52 -129.5q0 -37 -12 -106q65 16 114 16q123 0 236 -107.5t113 -223.5q0 -160 -154 -275q-186 -139 -479 -139q-80 -291 -111 -332q-10 -14 -20 -14q-31 0 -64 46t-33 89zM373 539q23 -2 65 2 q137 10 246 82.5t109 164.5q0 66 -57.5 108t-127 42t-145.5 -33q-55 -233 -90 -366z" />
<glyph unicode="&#xdf;" horiz-adv-x="1198" d="M100 141q0 39 31 150q125 471 180 768q33 182 137.5 288.5t280.5 106.5q133 0 237.5 -121t104.5 -252q0 -61 -26.5 -113.5t-64.5 -83t-75 -55t-63.5 -44t-26.5 -33t40 -47t88 -72.5t88 -107.5t40 -146.5q0 -154 -123 -249t-282 -95q-88 0 -136.5 32.5t-48.5 79.5 q1 43 54 43l102 -4q92 0 177 54.5t85 144.5q0 61 -44 117.5t-95 91.5t-95 83t-44 84t44 69.5t95 61.5t95 76t44 101q0 88 -62.5 151.5t-135 63.5t-133 -74.5t-85.5 -201.5q-199 -977 -295 -977q-29 0 -58.5 35.5t-29.5 74.5z" />
<glyph unicode="&#xe0;" horiz-adv-x="966" d="M20 279q0 123 90.5 304t233.5 322.5t270 141.5q92 0 170 -93.5t78 -168t-51 -152.5q25 -31 25 -53q0 -57 -26 -196.5t-31 -182.5t-9 -69t-8 -50q-10 -51 -39 -51q-74 0 -88 229q-184 -229 -338 -229q-94 0 -185.5 81t-91.5 167zM193 279q0 -35 28.5 -56.5t67.5 -21.5 q96 0 217 130t168 316q6 31 35 37v2q0 190 -74 191q-80 0 -187.5 -114t-181 -257.5t-73.5 -226.5zM498 1427q0 29 30.5 67t67.5 38q27 0 76 -53q14 -15 36.5 -39.5t94 -99t81 -94t9.5 -39t-17.5 -38t-36 -18.5t-40 13.5t-60.5 44t-61.5 47t-49 35t-38.5 26.5t-30.5 21.5 t-28 21.5t-19.5 20q-14 18 -14 47z" />
<glyph unicode="&#xe1;" horiz-adv-x="966" d="M20 279q0 123 90.5 304t233.5 322.5t270 141.5q92 0 170 -93.5t78 -168t-51 -152.5q25 -31 25 -53q0 -57 -26 -196.5t-31 -182.5t-9 -69t-8 -50q-10 -51 -39 -51q-74 0 -88 229q-184 -229 -338 -229q-94 0 -185.5 81t-91.5 167zM193 279q0 -35 28.5 -56.5t67.5 -21.5 q96 0 217 130t168 316q6 31 35 37v2q0 190 -74 191q-80 0 -187.5 -114t-181 -257.5t-73.5 -226.5zM719 1214.5q0 28.5 25.5 61.5t74.5 81t79 76.5t46.5 45t34.5 32.5q35 29 63.5 29t55 -38t26.5 -67.5t-5 -44t-24.5 -31t-33.5 -26.5q-72 -47 -111 -72.5t-65.5 -46 t-38.5 -28.5q-51 -35 -73.5 -35t-38 17.5t-15.5 46z" />
<glyph unicode="&#xe2;" horiz-adv-x="966" d="M20 279q0 123 90.5 304t233.5 322.5t270 141.5q92 0 170 -93.5t78 -168t-51 -152.5q25 -31 25 -53q0 -57 -26 -196.5t-31 -182.5t-9 -69t-8 -50q-10 -51 -39 -51q-74 0 -88 229q-184 -229 -338 -229q-94 0 -185.5 81t-91.5 167zM193 279q0 -35 28.5 -56.5t67.5 -21.5 q96 0 217 130t168 316q6 31 35 37v2q0 190 -74 191q-80 0 -187.5 -114t-181 -257.5t-73.5 -226.5zM440 1247q0 74 142 154q23 12 55.5 32.5t53 33t42.5 24.5q47 25 67.5 25t38 -10.5t28 -23t34 -42t35.5 -44t42 -47t42 -48t30.5 -39t25.5 -42t7 -34t-15 -27.5t-42 -12 t-74 39t-73.5 71.5t-79.5 100.5q-57 -29 -120 -78t-103.5 -77.5t-68.5 -28.5t-47.5 18t-19.5 55z" />
<glyph unicode="&#xe3;" horiz-adv-x="966" d="M20 279q0 123 90.5 304t233.5 322.5t270 141.5q92 0 170 -93.5t78 -168t-51 -152.5q25 -31 25 -53q0 -57 -26 -196.5t-31 -182.5t-9 -69t-8 -50q-10 -51 -39 -51q-74 0 -88 229q-184 -229 -338 -229q-94 0 -185.5 81t-91.5 167zM193 279q0 -35 28.5 -56.5t67.5 -21.5 q96 0 217 130t168 316q6 31 35 37v2q0 190 -74 191q-80 0 -187.5 -114t-181 -257.5t-73.5 -226.5zM446 1221q0 76 80 158.5t162 82.5q49 0 87 -24.5t56 -53.5q51 -84 89 -90q35 6 78.5 75t82.5 69q51 0 51.5 -71t-65.5 -146.5t-141 -75.5q-111 0 -230 180q-39 -18 -70.5 -61 t-56 -74t-55.5 -31t-49.5 16.5t-18.5 45.5z" />
<glyph unicode="&#xe4;" horiz-adv-x="966" d="M20 279q0 123 90.5 304t233.5 322.5t270 141.5q92 0 170 -93.5t78 -168t-51 -152.5q25 -31 25 -53q0 -57 -26 -196.5t-31 -182.5t-9 -69t-8 -50q-10 -51 -39 -51q-74 0 -88 229q-184 -229 -338 -229q-94 0 -185.5 81t-91.5 167zM193 279q0 -35 28.5 -56.5t67.5 -21.5 q96 0 217 130t168 316q6 31 35 37v2q0 190 -74 191q-80 0 -187.5 -114t-181 -257.5t-73.5 -226.5zM518 1331q0 39 31 75t62.5 36t74.5 -80t43 -110.5t-17.5 -49t-35.5 -18.5q-47 0 -102.5 54t-55.5 93zM827 1331q0 39 31 75t62.5 36t74.5 -80t43 -110.5t-18.5 -49 t-36.5 -18.5q-45 0 -100.5 54t-55.5 93z" />
<glyph unicode="&#xe5;" horiz-adv-x="966" d="M20 279q0 123 90.5 304t233.5 322.5t270 141.5q92 0 170 -93.5t78 -168t-51 -152.5q25 -31 25 -53q0 -57 -26 -196.5t-31 -182.5t-9 -69t-8 -50q-10 -51 -39 -51q-74 0 -88 229q-184 -229 -338 -229q-94 0 -185.5 81t-91.5 167zM193 279q0 -35 28.5 -56.5t67.5 -21.5 q96 0 217 130t168 316q6 31 35 37v2q0 190 -74 191q-80 0 -187.5 -114t-181 -257.5t-73.5 -226.5zM627 1311q0 80 60.5 148.5t136 68.5t121.5 -52.5t46 -131t-60.5 -147.5t-135 -69t-121.5 51.5t-47 131.5zM745 1317q0 -37 15.5 -58.5t41 -21.5t47 28.5t21.5 66.5t-15 59.5 t-41 21.5t-47.5 -29.5t-21.5 -66.5z" />
<glyph unicode="&#xe6;" horiz-adv-x="1521" d="M59 283q0 125 83 303t224.5 319.5t276.5 141.5q72 0 135.5 -49.5t95.5 -120.5q152 170 304 170q123 0 222 -115t99 -224.5t-117.5 -178t-257 -68.5t-278.5 33q-29 -86 -29 -159t44 -112t145.5 -39t209 36t117.5 36q53 0 53 -41q0 -55 -124.5 -119.5t-251.5 -64.5 t-222.5 71.5t-117.5 188.5q-94 -127 -176 -193.5t-171.5 -66.5t-176.5 81t-87 171zM227 279q0 -35 27 -56.5t59 -21.5q94 0 195.5 100t189.5 279q21 70 56 127q-6 170 -93.5 170t-193 -115t-173 -256t-67.5 -227zM895 610q86 -18 188.5 -18t180 33.5t77.5 90t-50 113 t-113.5 56.5t-144.5 -79t-138 -196z" />
<glyph unicode="&#xe7;" horiz-adv-x="915" d="M66 334q0 139 86 307t222 287t265 119q84 0 147.5 -76t63.5 -133q0 -16 -10.5 -27.5t-29.5 -11.5t-68.5 36.5t-88.5 36.5q-111 0 -258 -194.5t-147 -339.5q0 -63 40 -100t129 -37t163.5 21.5t115.5 43t64 21.5q39 0 39 -39q0 -57 -135.5 -134t-253.5 -83q-23 -55 -50 -99 h7q61 0 125.5 -36.5t64.5 -79.5q-2 -90 -126 -145.5t-257 -55.5q-41 0 -66.5 14.5t-25.5 34.5q0 27 55.5 38t133 29.5t114.5 57.5q-14 18 -98 35.5t-84 40.5q0 20 33.5 93t44.5 97q-90 37 -152.5 114t-62.5 165z" />
<glyph unicode="&#xe8;" horiz-adv-x="897" d="M31 366.5q0 145.5 77.5 304t201.5 267.5t245 109t220 -115t99 -224.5t-118.5 -178t-267 -68.5t-267.5 33q-29 -90 -28.5 -161t44.5 -110t144 -39t207.5 36t118.5 36q53 0 53 -41q0 -55 -124 -119.5t-243 -64.5q-160 0 -261 95t-101 240.5zM266 608q92 -16 192.5 -16 t178.5 33.5t78 89t-50.5 113t-99.5 57.5q-78 0 -158.5 -79t-140.5 -198zM340 1431.5q0 24.5 30.5 62.5t67.5 38q29 0 78 -53q12 -14 35.5 -40t95.5 -99.5t81 -93t9 -39t-17.5 -38t-35.5 -18.5t-39.5 13.5t-61.5 45t-63.5 47t-48.5 33t-39 26.5t-31.5 22.5t-26.5 21.5 t-17.5 18.5t-12.5 19.5t-4 33.5z" />
<glyph unicode="&#xe9;" horiz-adv-x="897" d="M31 366.5q0 145.5 77.5 304t201.5 267.5t245 109t220 -115t99 -224.5t-118.5 -178t-267 -68.5t-267.5 33q-29 -90 -28.5 -161t44.5 -110t144 -39t207.5 36t118.5 36q53 0 53 -41q0 -55 -124 -119.5t-243 -64.5q-160 0 -261 95t-101 240.5zM266 608q92 -16 192.5 -16 t178.5 33.5t78 89t-50.5 113t-99.5 57.5q-78 0 -159 -79t-140 -198zM561 1213.5q0 27.5 24.5 60.5t75 81t81 77.5t46 46t35.5 32.5q37 29 63.5 29t53.5 -38t27 -67.5t-5.5 -44t-24.5 -31t-36 -26.5q-70 -47 -108.5 -72.5t-65.5 -46t-39 -28.5q-53 -35 -74.5 -35t-37 17.5 t-15.5 45z" />
<glyph unicode="&#xea;" horiz-adv-x="897" d="M31 366.5q0 145.5 77.5 304t201.5 267.5t245 109t220 -115t99 -224.5t-118.5 -178t-267 -68.5t-267.5 33q-29 -90 -28.5 -161t44.5 -110t144 -39t207.5 36t118.5 36q53 0 53 -41q0 -55 -124 -119.5t-243 -64.5q-160 0 -261 95t-101 240.5zM266 608q92 -16 192.5 -16 t178.5 33.5t78 89t-50.5 113t-99.5 57.5q-78 0 -159 -79t-140 -198zM283 1247q0 37 32.5 73t83 64.5t83 49t53 33t43.5 24.5q49 25 68.5 25t36.5 -10.5t28 -22.5q16 -20 48 -60.5t61.5 -73t41.5 -48t30.5 -39t26 -42t7.5 -34t-14.5 -27.5t-42 -12t-74.5 39t-74 71.5 t-80 100.5q-57 -31 -119.5 -79t-102.5 -76.5t-68.5 -28.5t-48 18t-19.5 55z" />
<glyph unicode="&#xeb;" horiz-adv-x="897" d="M31 366.5q0 145.5 77.5 304t201.5 267.5t245 109t220 -115t99 -224.5t-118.5 -178t-267 -68.5t-267.5 33q-29 -90 -28.5 -161t44.5 -110t144 -39t207.5 36t118.5 36q53 0 53 -41q0 -55 -124 -119.5t-243 -64.5q-160 0 -261 95t-101 240.5zM266 608q92 -16 192.5 -16 t178.5 33.5t78 89t-50.5 113t-99.5 57.5q-78 0 -159 -79t-140 -198zM362 1332q0 40 30 75t62.5 35t74.5 -80t42 -110.5t-17.5 -48t-35.5 -17.5q-45 0 -100.5 53t-55.5 93zM670 1331q0 39 29.5 75t62.5 36t76 -80t43 -110.5t-18 -48t-36 -17.5q-47 0 -102 53t-55 92z" />
<glyph unicode="&#xec;" horiz-adv-x="487" d="M74 110.5q0 30.5 20.5 113.5t53 203t78.5 322.5t62.5 250t49.5 47.5t67.5 -47.5t34.5 -90.5q0 -113 -209 -774q-35 -102 -90 -102q-29 0 -48 23.5t-19 54zM139 1431.5q0 24.5 30 62.5t67 38q29 0 77 -53q12 -14 36 -40t95.5 -99.5t81 -93t9.5 -39t-17.5 -38t-36 -18.5 t-40 13.5t-61.5 45t-61.5 47t-48 34t-39 26.5t-31 21.5t-27.5 21.5t-18.5 19.5t-12.5 19.5t-3 32.5z" />
<glyph unicode="&#xed;" horiz-adv-x="487" d="M74 110.5q0 30.5 20.5 113.5t53 203t78.5 322.5t62.5 250t49.5 47.5t67.5 -47.5t34.5 -90.5q0 -113 -209 -774q-35 -102 -90 -102q-29 0 -48 23.5t-19 54zM358 1214.5q0 28.5 26 61.5t75 81t78.5 76.5t46 45t34.5 32.5q35 29 64 29t55.5 -38t26.5 -67.5t-5 -44t-24.5 -31 t-34.5 -26.5q-72 -47 -110.5 -72.5t-65 -46t-39.5 -28.5q-53 -35 -74.5 -35t-37 17.5t-15.5 46z" />
<glyph unicode="&#xee;" horiz-adv-x="487" d="M74 110.5q0 30.5 20.5 113.5t53 203t78.5 322.5t62.5 250t49.5 47.5t67.5 -47.5t34.5 -90.5q0 -113 -209 -774q-35 -102 -90 -102q-29 0 -48 23.5t-19 54zM80 1247q0 74 141 154q23 12 55.5 32.5t53 33t44 24.5t41 18.5t32 6.5t32 -10.5t27.5 -23t33.5 -42t36 -44t42 -47 t42 -48t30.5 -39.5q33 -41 33 -66t-15.5 -37t-42 -12t-73.5 39t-73.5 71.5t-80.5 100.5q-57 -29 -119.5 -78t-103.5 -77.5t-68.5 -28.5t-47 18t-19.5 55z" />
<glyph unicode="&#xef;" horiz-adv-x="487" d="M74 110.5q0 30.5 20.5 113.5t53 203t78.5 322.5t62.5 250t49.5 47.5t67.5 -47.5t34.5 -90.5q0 -113 -209 -774q-35 -102 -90 -102q-29 0 -48 23.5t-19 54zM160 1332q0 40 28.5 75t61.5 35t76 -80t43 -110.5t-17.5 -48t-36.5 -17.5q-47 0 -101 53t-54 93zM467 1331 q0 39 29.5 75t62.5 36t76 -80t43 -110.5t-18.5 -48t-36.5 -17.5q-45 0 -100.5 53t-55.5 92z" />
<glyph unicode="&#xf0;" horiz-adv-x="925" d="M63 362q0 240 138.5 417t324.5 177q78 0 154 -71q-8 123 -51 227q-174 -66 -207 -65q-66 0 -66 36q0 31 48.5 56.5t105.5 46t65 24.5q-74 106 -137 107q-16 0 -50 -15.5t-52 -15.5q-37 0 -37 46t51 87t107 41q152 0 276 -188q158 61 180 61q47 0 48 -33q0 -39 -175 -120 q80 -170 80 -362.5t-72.5 -374t-200.5 -297t-276 -115.5q-104 0 -179 92t-75 239zM244 346q0 -63 25.5 -116.5t62.5 -53.5q111 0 223.5 185.5t126.5 386.5q-61 76 -121 75q-113 0 -215 -137t-102 -340z" />
<glyph unicode="&#xf1;" horiz-adv-x="1089" d="M45 158q0 8 38 126.5t54 180.5q53 199 62 440q6 150 43 150q45 0 89 -47t44 -103.5t-34 -217.5t-79 -300q195 332 321 496t204.5 164t149.5 -84t71 -179q0 -137 -68 -360q-127 -393 -221 -393q-47 0 -47 61q0 49 45 178q121 342 121 471q0 43 -19.5 74t-37 31t-34 -7.5 t-35 -24.5t-36 -36.5t-40 -50.5t-40.5 -57.5t-46 -69.5t-47.5 -74.5t-51 -82t-53 -83t-56.5 -90t-58.5 -92.5t-50.5 -72q-53 -76 -80.5 -75.5t-67.5 46.5t-40 81zM317 1227.5q0 68.5 80 151.5t162 83q49 0 87 -24.5t56 -53.5q51 -84 89 -90q35 6 78.5 75t82.5 69 q51 0 51.5 -71t-65.5 -146.5t-141 -75.5q-111 0 -230 180q-39 -18 -70.5 -61t-56 -74t-55.5 -31q-68 0 -68 68.5z" />
<glyph unicode="&#xf2;" horiz-adv-x="925" d="M74 371.5q0 148.5 70.5 308.5t186 263.5t237.5 103.5t204 -103.5t82 -252t-71.5 -303.5t-197.5 -256t-268 -101q-104 0 -173.5 96t-69.5 244.5zM250 366.5q0 -157.5 78 -196.5q147 29 250.5 201.5t103.5 326.5q0 70 -22.5 132.5t-65.5 91.5q-141 -39 -242.5 -218.5 t-101.5 -337zM369 1431.5q0 24.5 30.5 62.5t58 38t45 -13.5t57.5 -57.5t112.5 -119.5t82 -95t9.5 -39t-17.5 -38t-36 -18.5t-39 13.5t-60.5 44t-62.5 47t-49 35t-38.5 26.5t-30.5 21.5t-28 21.5t-18.5 19.5t-12 19.5t-3 32.5z" />
<glyph unicode="&#xf3;" horiz-adv-x="925" d="M74 371.5q0 148.5 70.5 308.5t186 263.5t237.5 103.5t204 -103.5t82 -252t-71.5 -303.5t-197.5 -256t-268 -101q-104 0 -173.5 96t-69.5 244.5zM250 366.5q0 -157.5 78 -196.5q147 29 250.5 201.5t103.5 326.5q0 70 -22.5 132.5t-65.5 91.5q-141 -39 -242.5 -218.5 t-101.5 -337zM590 1213.5q0 27.5 25.5 60.5t74.5 81t80 77.5t46 46t36 32.5q37 29 63.5 29t53 -38t26.5 -67.5t-5 -44t-24.5 -31t-35.5 -26.5q-70 -47 -109 -72.5t-65.5 -46t-38.5 -28.5q-53 -35 -74.5 -35t-37 17.5t-15.5 45z" />
<glyph unicode="&#xf4;" horiz-adv-x="925" d="M74 371.5q0 148.5 70.5 308.5t186 263.5t237.5 103.5t204 -103.5t82 -252t-71.5 -303.5t-197.5 -256t-268 -101q-104 0 -173.5 96t-69.5 244.5zM250 366.5q0 -157.5 78 -196.5q147 29 250.5 201.5t103.5 326.5q0 70 -22.5 132.5t-65.5 91.5q-141 -39 -242.5 -218.5 t-101.5 -337zM311 1247q0 74 142 154q23 12 55.5 32.5t53 33t44 24.5t41 18.5t31.5 6.5t31.5 -10.5t28 -23t34 -42t35.5 -44t42 -47t42 -48t31 -39.5q33 -41 32.5 -66t-15.5 -37t-42 -12t-74 39t-73.5 71.5t-79.5 100.5q-57 -29 -120 -78t-103.5 -77.5t-68.5 -28.5t-47.5 18 t-19.5 55z" />
<glyph unicode="&#xf5;" horiz-adv-x="925" d="M74 371.5q0 148.5 70.5 308.5t186 263.5t237.5 103.5t204 -103.5t82 -252t-71.5 -303.5t-197.5 -256t-268 -101q-104 0 -173.5 96t-69.5 244.5zM250 366.5q0 -157.5 78 -196.5q147 29 250.5 201.5t103.5 326.5q0 70 -22.5 132.5t-65.5 91.5q-141 -39 -242.5 -218.5 t-101.5 -337zM317 1221q0 76 81 158.5t163 82.5q47 0 85 -24.5t56 -53.5q51 -84 89 -90q35 6 78.5 75t82.5 69q51 0 51.5 -71t-65.5 -146.5t-141 -75.5q-113 0 -228 180q-47 -23 -97 -94.5t-83 -71.5q-72 1 -72 62z" />
<glyph unicode="&#xf6;" horiz-adv-x="925" d="M74 371.5q0 148.5 70.5 308.5t186 263.5t237.5 103.5t204 -103.5t82 -252t-71.5 -303.5t-197.5 -256t-268 -101q-104 0 -173.5 96t-69.5 244.5zM250 366.5q0 -157.5 78 -196.5q147 29 250.5 201.5t103.5 326.5q0 70 -22.5 132.5t-65.5 91.5q-141 -39 -242.5 -218.5 t-101.5 -337zM391 1332q0 40 29 75t61.5 35t75.5 -80t43 -110.5t-17.5 -48t-35.5 -17.5q-45 0 -100.5 53t-55.5 93zM698 1331q0 39 30 75t62.5 36t75.5 -80t43 -110.5t-17.5 -48t-37.5 -17.5q-45 0 -100.5 53t-55.5 92z" />
<glyph unicode="&#xf7;" horiz-adv-x="1228" d="M82 698q0 43 55 43q344 0 617.5 19.5t347.5 19.5q139 0 139 -45q0 -76 -335 -119t-697 -43q-49 0 -88 41t-39 84zM412 275q0 44 35.5 88.5t73.5 44.5t88 -99.5t50 -150.5q0 -16 -22.5 -37t-42.5 -21q-51 0 -116.5 65.5t-65.5 109.5zM592 1087.5q0 45.5 36 89.5t73.5 44 t88 -100.5t50.5 -153.5q0 -16 -23 -36t-43 -20q-51 0 -116.5 65.5t-65.5 111z" />
<glyph unicode="&#xf8;" horiz-adv-x="935" d="M41 70q0 23 76 118q-43 82 -43 174q0 154 77.5 313t206.5 265.5t265 106.5q98 0 172 -70q80 74 129 74t49 -41q0 -31 -74 -115l-25 -29q35 -76 35 -164q0 -240 -177 -455.5t-394 -215.5q-82 0 -158 69q-68 -70 -98 -69q-41 0 -41 39zM231 332q229 264 330 384t137 158 q-31 37 -71 48q-147 -16 -271.5 -212t-124.5 -368v-10zM274 201q29 -35 64 -43q109 4 210 106.5t155.5 229.5t54.5 225v18q-340 -381 -484 -536z" />
<glyph unicode="&#xf9;" horiz-adv-x="980" d="M31 268q0 195 113.5 487t189.5 292q35 0 62.5 -34t27.5 -64.5t-55 -145.5q-164 -344 -164 -533q0 -33 20.5 -54t48.5 -21q78 0 185.5 137t195.5 319.5t131 337.5q9 33 17 45.5t35.5 12.5t67.5 -53.5t40 -102.5q0 -27 -90 -315.5t-139 -458.5q-25 -86 -70 -86 q-27 0 -45 22.5t-18 82t47 214.5q-86 -139 -186.5 -229t-183.5 -90t-156.5 77.5t-73.5 159.5zM367 1431.5q0 24.5 30.5 62.5t58 38t45 -13.5t57.5 -57.5t112.5 -119.5t82 -95t9.5 -39t-17.5 -38t-36 -18.5t-39 13.5t-60.5 44t-62.5 47t-49 35t-39 26.5t-30.5 21.5 t-27.5 21.5t-18.5 19.5t-12 19.5t-3 32.5z" />
<glyph unicode="&#xfa;" horiz-adv-x="980" d="M31 268q0 195 113.5 487t189.5 292q35 0 62.5 -34t27.5 -64.5t-55 -145.5q-164 -344 -164 -533q0 -33 20.5 -54t48.5 -21q78 0 185.5 137t195.5 319.5t131 337.5q9 33 17 45.5t35.5 12.5t67.5 -53.5t40 -102.5q0 -27 -90 -315.5t-139 -458.5q-25 -86 -70 -86 q-27 0 -45 22.5t-18 82t47 214.5q-86 -139 -186.5 -229t-183.5 -90t-156.5 77.5t-73.5 159.5zM588 1214.5q0 28.5 25.5 61.5t74.5 81t79 76.5t46 45t35 32.5q35 29 63.5 29t55 -38t26.5 -67.5t-5 -44t-24.5 -31t-33.5 -26.5q-72 -47 -111 -72.5t-65.5 -46t-38.5 -28.5 q-53 -35 -75 -35t-37 17.5t-15 46z" />
<glyph unicode="&#xfb;" horiz-adv-x="980" d="M31 268q0 195 113.5 487t189.5 292q35 0 62.5 -34t27.5 -64.5t-55 -145.5q-164 -344 -164 -533q0 -33 20.5 -54t48.5 -21q78 0 185.5 137t195.5 319.5t131 337.5q9 33 17 45.5t35.5 12.5t67.5 -53.5t40 -102.5q0 -27 -90 -315.5t-139 -458.5q-25 -86 -70 -86 q-27 0 -45 22.5t-18 82t47 214.5q-86 -139 -186.5 -229t-183.5 -90t-156.5 77.5t-73.5 159.5zM309 1247q0 74 142 154q23 12 55.5 32.5t53 33t42.5 24.5q49 25 68.5 25t37 -10.5t27.5 -23t34 -42t36 -44t42 -47t42 -48t31 -39.5q33 -41 32.5 -66t-15.5 -37t-42 -12t-74 39 t-73.5 71.5t-79.5 100.5q-57 -29 -120 -78t-104 -77.5t-68.5 -28.5t-47 18t-19.5 55z" />
<glyph unicode="&#xfc;" horiz-adv-x="980" d="M31 268q0 195 113.5 487t189.5 292q35 0 62.5 -34t27.5 -64.5t-55 -145.5q-164 -344 -164 -533q0 -33 20.5 -54t48.5 -21q78 0 185.5 137t195.5 319.5t131 337.5q9 33 17 45.5t35.5 12.5t67.5 -53.5t40 -102.5q0 -27 -90 -315.5t-139 -458.5q-25 -86 -70 -86 q-27 0 -45 22.5t-18 82t47 214.5q-86 -139 -186.5 -229t-183.5 -90t-156.5 77.5t-73.5 159.5zM389 1332q0 40 28.5 75t61.5 35t76 -80t43 -110.5t-17.5 -48t-35.5 -17.5q-47 0 -101.5 53t-54.5 93zM696 1331q0 39 30 75t62.5 36t75.5 -80t43 -110.5t-17.5 -48t-37.5 -17.5 q-45 0 -100.5 53t-55.5 92z" />
<glyph unicode="&#xfd;" horiz-adv-x="960" d="M-39 -285q0 29 25.5 64t44 35t59.5 -45q119 -135 203 -136q63 0 114.5 112t97.5 252t51 154.5t12 37t14 40.5q-145 -199 -287 -198q-86 0 -159 79.5t-73 188.5t53.5 293t125 319.5t116.5 135.5q37 0 69 -34t32 -69t-53 -145q-166 -340 -166 -529q0 -33 20.5 -54t48.5 -21 q74 0 176.5 131t188.5 311q72 152 149 387q8 23 41 23t71 -48.5t38 -107.5q0 -41 -84 -278.5t-114 -322.5t-80 -225.5t-97 -273.5q-102 -293 -307 -293q-117 0 -223.5 71t-106.5 146zM637 1213.5q0 27.5 25.5 60.5t74.5 81t80 77.5t46.5 46t33.5 32.5q39 29 65.5 29t53 -38 t26.5 -67.5t-5 -44t-24.5 -31t-33.5 -26.5q-72 -47 -111 -72.5t-65.5 -46t-38.5 -28.5q-53 -35 -74.5 -35t-37 17.5t-15.5 45z" />
<glyph unicode="&#xfe;" horiz-adv-x="1077" d="M-18 -281q0 41 88 392q260 1047 260 1355q0 33 9 47.5t40 14.5t77 -60.5t45.5 -135t-55.5 -361.5q131 59 239 59t223.5 -121t115.5 -250t-104.5 -243.5t-243.5 -175t-240.5 -60.5t-159.5 45q-162 -635 -189.5 -635t-66 44t-38.5 85zM307 352q61 -20 88 -20 q152 0 308.5 103.5t156.5 223.5q0 84 -57.5 140.5t-151.5 56.5t-245 -92q-27 -133 -99 -412z" />
<glyph unicode="&#xff;" horiz-adv-x="960" d="M-39 -285q0 29 25.5 64t44 35t59.5 -45q119 -135 203 -136q63 0 114.5 112t97.5 252t51 154.5t12 37t14 40.5q-145 -199 -287 -198q-86 0 -159 79.5t-73 188.5t53.5 293t125 319.5t116.5 135.5q37 0 69 -34t32 -69t-53 -145q-166 -340 -166 -529q0 -33 20.5 -54t48.5 -21 q74 0 176.5 131t188.5 311q72 152 149 387q8 23 41 23t71 -48.5t38 -107.5q0 -41 -84 -278.5t-114 -322.5t-80 -225.5t-97 -273.5q-102 -293 -307 -293q-117 0 -223.5 71t-106.5 146zM438 1331q0 39 30 75t61.5 36t74.5 -80t43 -110.5t-17.5 -49t-35.5 -18.5 q-45 0 -100.5 54t-55.5 93zM745 1331q0 39 31 75t62.5 36t74.5 -80t43 -110.5t-17.5 -49t-37.5 -18.5q-45 0 -100.5 54t-55.5 93z" />
<glyph unicode="&#x152;" horiz-adv-x="1925" d="M111 438q0 186 68.5 379t172 336t228.5 234.5t231 91.5q170 0 291 -162v14q0 39 16 55q49 68 449.5 68t400.5 -59q0 -39 -88 -56q-72 -14 -193.5 -25t-171 -16.5t-237.5 -37.5v-7q0 -139 -76 -419q12 -2 83 -2.5t188.5 10t179 10.5t61.5 -29q0 -72 -168 -106.5 t-389 -34.5q-59 -193 -67.5 -222.5t-20.5 -74.5q-25 -82 -25 -117q0 -66 58 -65q236 0 520 76q92 25 107 24q29 0 28 -43q0 -74 -225 -151.5t-438 -77.5q-94 0 -165 55t-71 129v10q-205 -190 -409 -190q-135 0 -236.5 133t-101.5 270zM297 451q0 -113 49 -183.5t115 -70.5 q127 0 297 184q182 199 250 434q16 66 16 123q0 170 -60.5 268.5t-142.5 98.5t-204.5 -127t-221 -333t-98.5 -394z" />
<glyph unicode="&#x153;" horiz-adv-x="1855" d="M74 371.5q0 148.5 70.5 308.5t186 263.5t234.5 103.5q88 0 154.5 -56.5t101.5 -144.5q162 201 328 201q123 0 222 -115t99 -224.5t-117.5 -178t-261 -68.5t-270.5 31q-33 -78 -33 -154q0 -154 173 -154q119 0 226 36t118 36q53 0 53 -41q0 -55 -125 -119.5t-239.5 -64.5 t-199.5 49t-126 133q-158 -182 -351 -182q-104 0 -173.5 96t-69.5 244.5zM250 366.5q0 -157.5 78 -196.5q145 31 249.5 196.5t104.5 331.5q0 70 -22.5 132.5t-65.5 91.5q-141 -39 -242.5 -218.5t-101.5 -337zM866 610q72 -18 180.5 -18t186.5 33.5t78 89t-50.5 113 t-99.5 57.5q-76 0 -156.5 -79t-138.5 -196z" />
<glyph unicode="&#x178;" horiz-adv-x="1177" d="M188 1323q0 143 82 143q33 0 52.5 -63.5t48 -182t76 -218t113 -169t110.5 -69.5q37 0 134 175t198.5 351t144.5 176t69.5 -30.5t26.5 -73.5t-78 -172t-209 -341t-262 -460t-180 -309.5t-80 -61.5q-45 0 -45 74q0 57 57 174q18 35 28.5 58.5t33 66.5t35 66.5t38 74 t37.5 72.5q-121 31 -222 153t-154.5 272.5t-53.5 293.5zM500 1784q0 39 30.5 74.5t62.5 35.5t75 -79.5t43 -110.5t-18.5 -49.5t-37.5 -18.5q-45 0 -100 54.5t-55 93.5zM809 1784q0 39 29.5 74.5t62.5 35.5t75 -79.5t42 -110.5t-17.5 -49.5t-35.5 -18.5q-45 0 -100.5 54.5 t-55.5 93.5z" />
<glyph unicode="&#x2c6;" horiz-adv-x="686" d="M20 1247q0 37 33 73t83 64.5t83 49t53.5 33t44 24.5t41 18.5t31.5 6.5t31.5 -10.5t28.5 -22.5q16 -20 48.5 -61.5t61.5 -72t42 -48t32 -39.5q33 -41 33 -66q0 -49 -54 -49q-33 0 -80 39t-73.5 71.5t-79.5 100.5q-57 -31 -119.5 -79t-102.5 -76.5t-69 -28.5t-48.5 18 t-19.5 55z" />
<glyph unicode="&#x2dc;" horiz-adv-x="727" d="M20 1227.5q0 68.5 80 151.5t162 83q49 0 87 -24.5t57 -53.5q51 -84 88 -90q35 6 78.5 75t82.5 69q51 0 51.5 -71t-65.5 -146.5t-141 -75.5q-111 0 -230 180q-39 -18 -70.5 -61t-56 -74t-55.5 -31q-68 0 -68 68.5z" />
<glyph unicode="&#x2000;" horiz-adv-x="996" />
<glyph unicode="&#x2001;" horiz-adv-x="1993" />
<glyph unicode="&#x2002;" horiz-adv-x="996" />
<glyph unicode="&#x2003;" horiz-adv-x="1993" />
<glyph unicode="&#x2004;" horiz-adv-x="664" />
<glyph unicode="&#x2005;" horiz-adv-x="498" />
<glyph unicode="&#x2006;" horiz-adv-x="332" />
<glyph unicode="&#x2007;" horiz-adv-x="332" />
<glyph unicode="&#x2008;" horiz-adv-x="249" />
<glyph unicode="&#x2009;" horiz-adv-x="398" />
<glyph unicode="&#x200a;" horiz-adv-x="110" />
<glyph unicode="&#x2010;" horiz-adv-x="940" d="M109 594q0 45 231 87t401 42q123 0 123 -51q0 -33 -66.5 -53.5t-321.5 -71.5t-278.5 -51t-56 34.5t-32.5 63.5z" />
<glyph unicode="&#x2011;" horiz-adv-x="940" d="M109 594q0 45 231 87t401 42q123 0 123 -51q0 -33 -66.5 -53.5t-321.5 -71.5t-278.5 -51t-56 34.5t-32.5 63.5z" />
<glyph unicode="&#x2012;" horiz-adv-x="940" d="M109 594q0 45 231 87t401 42q123 0 123 -51q0 -33 -66.5 -53.5t-321.5 -71.5t-278.5 -51t-56 34.5t-32.5 63.5z" />
<glyph unicode="&#x2013;" horiz-adv-x="1249" d="M137 594q0 45 338.5 107.5t571.5 62.5q125 0 124 -51q2 -41 -188 -80q-66 -14 -181.5 -32.5t-169.5 -28t-153.5 -30t-163 -33.5t-90 -13t-57.5 32.5t-31 65.5z" />
<glyph unicode="&#x2014;" horiz-adv-x="1878" d="M137 598q0 68 469 110t1012 42q203 0 203 -58q0 -45 -213 -65q-131 -12 -397.5 -28.5t-406.5 -30t-350 -42t-238 -29.5t-53.5 32.5t-25.5 68.5z" />
<glyph unicode="&#x2018;" horiz-adv-x="587" d="M115 1339q0 129 117.5 260.5t195.5 131.5q57 0 57 -45q0 -27 -47 -72t-94 -104.5t-47 -110.5t18.5 -76t40.5 -33q57 -23 57.5 -62.5t-31.5 -67t-75 -27.5q-80 0 -136 56t-56 150z" />
<glyph unicode="&#x2019;" horiz-adv-x="585" d="M104 1178q0 25 46.5 69.5t93.5 104t47 110.5t-18.5 76t-39.5 35q-59 25 -59 63.5t32 66.5t75 28q80 0 136 -56.5t56 -150.5q0 -129 -118.5 -260t-194.5 -131q-55 0 -56 45z" />
<glyph unicode="&#x201a;" horiz-adv-x="595" d="M51 -332q0 23 43 74q129 154 129 256q0 33 -26.5 54.5t-53 40t-26.5 46t35.5 69.5t87 42t101.5 -60.5t50 -136.5q0 -129 -110.5 -271t-188.5 -142q-41 0 -41 28z" />
<glyph unicode="&#x201c;" horiz-adv-x="1005" d="M115 1339q0 129 111.5 260.5t187.5 131.5q55 0 55 -48q0 -25 -40 -70.5t-80 -106t-40 -118t35 -100.5t35 -73.5t-25.5 -56t-66.5 -25.5q-74 0 -123 58t-49 148zM551 1339q0 125 102.5 252t192.5 127q55 0 55 -47q0 -39 -78 -119q-29 -31 -52 -75.5t-23 -93t33.5 -92.5 t33.5 -75.5t-25.5 -57t-64.5 -25.5q-74 0 -124 58t-50 148z" />
<glyph unicode="&#x201d;" horiz-adv-x="997" d="M104 1192q0 25 38 70t77 101t39 110.5t-34 98.5t-34 75.5t26 57.5t65 26q74 0 124 -58.5t50 -148.5q0 -125 -102.5 -252t-192.5 -127q-55 0 -56 47zM528 1180q0 25 40 70.5t80 106t40 118t-35 100.5t-35 73.5t26 56.5t67 26q74 0 124 -58.5t50 -148.5q0 -129 -113 -260 t-188 -131q-55 0 -56 47z" />
<glyph unicode="&#x201e;" horiz-adv-x="993" d="M29 -332q0 23 43 74q129 154 129 256q0 33 -27 54.5t-52.5 40t-25.5 46t35 69.5t74 42q66 0 116 -60.5t50 -136.5q0 -129 -110.5 -271t-190.5 -142q-41 0 -41 28zM467 -332q0 23 43 74q129 154 129 256q0 33 -26.5 54.5t-52 40t-25.5 46t34.5 69.5t73.5 42 q66 0 116 -60.5t50 -136.5q0 -129 -110.5 -271t-190.5 -142q-41 0 -41 28z" />
<glyph unicode="&#x2022;" horiz-adv-x="485" d="M102 706.5q0 55.5 44 109.5t90.5 54t109 -123.5t62.5 -187.5q0 -18 -27.5 -44t-52.5 -26q-66 0 -146 81t-80 136.5z" />
<glyph unicode="&#x2026;" horiz-adv-x="1363" d="M115 165q0 44 35.5 88t73.5 44t88 -100.5t50 -151.5q0 -16 -22.5 -36.5t-42.5 -20.5q-51 0 -116.5 66.5t-65.5 110.5zM569 166q0 45 35 88t74 43t88 -100.5t49 -151.5q0 -16 -21 -36.5t-44 -20.5q-51 0 -116 66.5t-65 111.5zM1024 165q0 44 37 88t75 44t87 -100.5 t49 -151.5q0 -16 -21.5 -36.5t-44.5 -20.5q-51 0 -116.5 66.5t-65.5 110.5z" />
<glyph unicode="&#x202f;" horiz-adv-x="398" />
<glyph unicode="&#x2039;" horiz-adv-x="1183" d="M174 635q0 29 23.5 72t46.5 59q86 70 289.5 161t283.5 91q37 0 71 -22.5t34 -45.5q0 -33 -72 -53q-180 -57 -343 -132t-163 -114q0 -35 127 -96t255 -119.5t128 -83.5q0 -43 -86 -43t-340 126t-254 200z" />
<glyph unicode="&#x203a;" horiz-adv-x="1210" d="M260 339q0 32 277.5 160t277.5 163q0 43 -125 117.5t-254 111.5q-80 24 -80 53q0 20 31 47t55 27q102 -2 319.5 -132t217.5 -222q0 -61 -43 -99q-88 -72 -306 -165t-294 -93t-76 32z" />
<glyph unicode="&#x205f;" horiz-adv-x="498" />
<glyph unicode="&#x20ac;" horiz-adv-x="1132" d="M31 501.5q0 28.5 188 59.5q20 92 51 170q-49 -4 -74.5 -4t-54 42t-28.5 73q0 43 243 65q121 207 293 343t346 136q57 0 109.5 -59t52.5 -115q0 -27 -14.5 -48t-28.5 -21t-50 30.5t-69 30.5q-88 0 -203.5 -78.5t-216.5 -203.5q121 6 195 6q303 0 303 -74q0 -37 -135 -55 q-135 -20 -475 -45q-45 -82 -68 -166q307 39 466 39t159 -52q0 -41 -139.5 -71.5t-460.5 -75.5l-39 -6q12 -98 69.5 -155.5t165 -57.5t213 36t176 71.5t97.5 35.5q35 0 35 -45t-85 -110.5t-214 -115.5t-234 -50q-176 0 -282.5 103.5t-116.5 262.5q-45 -6 -81 -6t-64.5 41 t-28.5 69.5z" />
<glyph unicode="&#x2122;" horiz-adv-x="1507" d="M102 1327q0 16 62.5 20.5t209 4.5t205 -22.5t58.5 -53.5q0 -20 -66 -21q-8 0 -151 5q-10 -74 -70 -269q-57 -205 -78 -205q-14 0 -36.5 20.5t-22.5 40t44 177.5t54 236l-147 -7q-20 0 -41 27t-21 47zM637 858.5q0 20.5 57.5 219t57.5 251.5q0 27 28 27q16 0 48 -23.5 t34 -42.5q6 -63 101 -243q37 39 86 93t77.5 84.5t59.5 62.5t50 46.5t35.5 14.5t41 -17.5t24.5 -40t-45 -167t-56 -185.5t-17.5 -64.5t-14.5 -46.5q-12 -41 -27.5 -41t-33 20.5t-17.5 55.5t21.5 130t50.5 169q-27 -29 -65.5 -70.5t-59 -63t-45.5 -44.5q-45 -45 -77.5 -45 t-59.5 33t-76 143q-53 -150 -66.5 -198t-19.5 -65t-10 -27.5t-8 -20.5q-8 -16 -18.5 -16.5t-33 25.5t-22.5 46.5z" />
<glyph unicode="&#x25fc;" horiz-adv-x="1044" d="M0 0v1044h1044v-1044h-1044z" />
</font>
</defs>
</svg>
