<?xml version="1.0" standalone="no"?>
<!DOCTYPE svg PUBLIC "-//W3C//DTD SVG 1.1//EN" "http://www.w3.org/Graphics/SVG/1.1/DTD/svg11.dtd" >
<svg xmlns="http://www.w3.org/2000/svg" xmlns:xlink="http://www.w3.org/1999/xlink" version="1.1">
<metadata></metadata>
<defs>
<font id="kalamlight" horiz-adv-x="925" >
<font-face units-per-em="2048" ascent="1638" descent="-410" />
<missing-glyph horiz-adv-x="839" />
<glyph unicode="&#xfb01;" horiz-adv-x="1093" d="M147 874q0 27 74 45.5t160 32.5q31 129 62.5 296t103 258t182.5 91t218.5 -103t107.5 -176t-24.5 -73t-59.5 38t-67 83t-77 83t-78.5 38t-55 -10.5t-40 -36t-31 -49t-26.5 -72.5q-25 -86 -88 -344q313 47 407 47q115 0 115 -94q0 -61 -95 -380t-123 -416t-64 -97 q-23 0 -37.5 22.5t-14.5 49t40 172t96.5 344t78.5 295.5q-51 -2 -233 -31t-199 -33q-203 -827 -258 -827q-18 0 -38.5 24.5t-20.5 46t26 113.5q98 342 166 620q-106 -20 -131.5 -20t-50.5 21.5t-25 41.5z" />
<glyph unicode="&#xfb02;" horiz-adv-x="1142" d="M150 885q0 31 78.5 45t142.5 26q49 250 61 318q57 324 268 323q68 0 109 -45t41 -111.5t-31 -66.5q-33 0 -49 56q-6 23 -24.5 40t-49.5 17q-53 0 -83.5 -67.5t-67.5 -231.5l-47 -209q285 51 356 123q84 84 104 205q10 72 10.5 155.5t5.5 109t21 25.5q25 0 58.5 -38.5 t33.5 -81.5q0 -190 -62 -542.5t-136 -626t-107 -273.5q-23 0 -43 25.5t-20 50t39 168.5q125 449 162 749q-109 -100 -451 -172q-109 -483 -169 -656t-87 -173q-20 0 -40.5 24.5t-20.5 47t26 116.5q111 393 164 621q-80 -12 -110.5 -12.5t-56 21t-25.5 40.5z" />
<glyph horiz-adv-x="0" />
<glyph horiz-adv-x="0" />
<glyph unicode="&#xd;" horiz-adv-x="839" />
<glyph unicode=" "  horiz-adv-x="839" />
<glyph unicode="&#x09;" horiz-adv-x="839" />
<glyph unicode="&#xa0;" horiz-adv-x="839" />
<glyph unicode="!" horiz-adv-x="643" d="M98 141q0 37 28 73t56.5 36t70.5 -92t42 -140q0 -8 -13.5 -18t-25.5 -10q-45 0 -101.5 57t-56.5 94zM262 536.5q0 16.5 13.5 78t33 163t39.5 223.5q45 291 45 594q1 50 17 50q27 0 72.5 -27t45.5 -49q0 -195 -85 -642.5t-130 -447.5q-20 0 -35.5 20.5t-15.5 37z" />
<glyph unicode="&#x22;" horiz-adv-x="509" d="M59 1218.5q0 14.5 18.5 165t18.5 267.5q0 41 25 41q18 0 47 -26t29 -44q0 -96 -28 -279.5t-54 -183.5q-20 0 -38 22.5t-18 37zM362 1218.5q0 14.5 18.5 165t18.5 267.5q0 41 25 41q18 0 46 -26t28 -44q0 -100 -27 -281.5t-55 -181.5q-18 0 -36 22.5t-18 37z" />
<glyph unicode="#" horiz-adv-x="1206" d="M102 356q0 37 193 72q90 373 123 524q-104 -16 -127 -16t-43.5 24.5t-20.5 43.5q0 41 217 75q45 229 45 287v68q0 29 8.5 31.5t24 2.5t52 -38.5t36.5 -95t-30 -234.5q199 23 319 30q33 176 33 234v70q0 29 7 31.5t23.5 2.5t53.5 -38.5t37 -99t-25 -189.5q111 4 127 4 q92 0 92 -47q0 -18 -48 -31.5t-193 -34.5q-37 -186 -129 -540q104 6 153 6q92 0 92 -45q0 -20 -53 -35t-221 -37l-51 -199q-53 -203 -92 -202q-20 0 -38 26.5t-18 50t72 305.5l-330 -43l-37 -133q-57 -206 -88 -206q-16 0 -36.5 24.5t-20.5 51t53 245.5q-68 -12 -92.5 -12 t-46 24.5t-21.5 42.5zM426 449q121 16 324 32q81 320 124 533l-321 -41q-41 -195 -127 -524z" />
<glyph unicode="$" horiz-adv-x="1030" d="M39 302q0 52 35 52q14 0 55 -43q125 -135 231 -155q14 51 156 495q-123 86 -187.5 150.5t-64.5 121t16.5 106.5t38.5 69q131 119 394 182q53 160 77.5 203t59.5 43t35 -46t-17 -96l-26 -79q57 4 78 4q51 0 81.5 -41t31 -70t-22.5 -29l-92 17q-51 0 -119 -10 q-63 -195 -150 -476q88 -63 139.5 -105t97.5 -104.5t46 -117.5q0 -139 -147.5 -235.5t-342.5 -102.5q-59 -162 -96 -162q-31 0 -31 49t19 123q-123 29 -209 117t-86 140zM383 949.5q0 -56.5 170 -181.5q51 168 117 379q-123 -35 -205 -88t-82 -109.5zM483 156 q138 16 228 75.5t90 140.5t-187 212q-29 -94 -72.5 -237.5t-58.5 -190.5z" />
<glyph unicode="%" horiz-adv-x="1710" d="M211 885q0 223 117.5 381.5t249.5 158.5q31 0 51 -9t55 -30q74 -45 164 -45t201.5 44.5t191.5 89.5t96.5 45t42 -40t25.5 -78t-79 -159t-227.5 -322.5t-204.5 -284.5t-118.5 -176t-100.5 -149.5t-82 -120t-68.5 -98.5t-49.5 -67q-47 -57 -61.5 -57.5t-30.5 26t-16 43 t31.5 69t114.5 176.5t167 244q307 442 563 811q-174 -111 -350 -110q-63 0 -121 18q20 -66 21 -135q0 -178 -124 -324.5t-253 -146.5q-80 0 -142.5 76t-62.5 170zM332 903q0 -59 26.5 -103t73.5 -44q72 0 157 109.5t85 217t-31 169t-74 61.5q-72 0 -154.5 -131t-82.5 -279z M977 279q0 221 117.5 380.5t246.5 159.5q88 0 151.5 -88t63.5 -227q0 -178 -122.5 -324.5t-253.5 -146.5q-80 0 -141.5 75.5t-61.5 170.5zM1096 297q0 -59 26.5 -103t75.5 -44q72 0 156 109.5t84 218t-30 169t-75 60.5q-72 0 -154.5 -131.5t-82.5 -278.5z" />
<glyph unicode="&#x26;" horiz-adv-x="1351" d="M45 236q0 66 111 165q90 82 170 146.5t86 70.5q18 14 34 27q-63 166 -63 316.5t105.5 267.5t265.5 117q127 0 179 -69t52 -165t-109.5 -221t-293.5 -277q61 -139 147 -239q92 61 217 153q258 190 279 191q45 0 45 -43q0 -31 -139.5 -149.5t-317.5 -237.5 q145 -125 295 -125q96 0 130 -8.5t34 -30.5q0 -72 -180.5 -72t-370.5 176q-324 -199 -475 -198q-70 0 -135.5 62.5t-65.5 142.5zM170 216q0 -30 23.5 -50.5t58.5 -20.5q121 0 387 172q-90 111 -145 224q-240 -193 -282 -244t-42 -81zM508 952.5q0 -112.5 35 -229.5 q150 125 232.5 222t82.5 175q0 119 -125 119q-94 0 -159.5 -87t-65.5 -199.5z" />
<glyph unicode="'" horiz-adv-x="212" d="M59 1219.5q0 13.5 20.5 164t20.5 267.5q0 41 20.5 41t50.5 -26t30 -44q0 -96 -29 -279.5t-57 -183.5q-20 0 -38 23.5t-18 37z" />
<glyph unicode="(" horiz-adv-x="1001" d="M172 584.5q0 183.5 79 386.5t191.5 343t236.5 248.5t217 162t124 53.5t55.5 -24.5t24.5 -46t-44 -55.5t-115 -86.5t-156 -120t-171 -161.5t-156.5 -201.5t-114.5 -250t-44 -284.5t44 -248.5t109.5 -170t141.5 -114t141 -76.5q154 -66 154 -101q0 -39 -58.5 -39 t-138.5 25.5t-172 86t-169 144.5t-128 215t-51 314.5z" />
<glyph unicode=")" horiz-adv-x="1003" d="M-57 -131q0 16 56 67.5t140 122t183.5 180t183.5 229.5t140 282.5t56 310t-34.5 246t-85 155t-99.5 95t-83.5 67.5t-34.5 51q0 53 86 54q123 0 257 -174.5t134 -434.5q0 -186 -56.5 -366.5t-144.5 -315.5t-191.5 -250.5t-201.5 -191.5q-207 -156 -273 -156q-33 0 -32 29z " />
<glyph unicode="*" horiz-adv-x="712" d="M217 1243q0 12 88 51t131 66q-49 18 -124.5 76.5t-75.5 82t20 23.5q68 0 90 -29q88 -102 115 -114q4 66 4 182q0 29 24 29q14 0 38 -22.5t24 -50.5t-39 -144q35 23 82 59q94 76 111.5 76t35 -12.5t17.5 -28.5q0 -12 -80 -56.5t-150 -72.5q29 -23 76 -49.5t76 -44 t29 -28.5t-14.5 -22.5t-26.5 -11.5q-37 0 -168 115q-8 -63 -28.5 -141t-39.5 -78q-12 0 -24.5 13t-12.5 22.5t11 37.5q39 113 45 146q-33 -31 -104 -74t-87 -43t-29.5 13.5t-13.5 29.5z" />
<glyph unicode="+" horiz-adv-x="1228" d="M113 684q0 35 53 35q147 -4 235 -4t187 6q8 59 47 373q6 57 35 57q23 0 61.5 -43t38.5 -75t-59 -304q74 6 168 16q207 23 245 23q86 0 86 -39q0 -33 -150.5 -65.5t-373.5 -53.5q-12 -70 -28.5 -163t-24.5 -136t-19 -90q-18 -80 -39.5 -80t-39 30t-17.5 58.5t5 63.5 t19.5 124t28.5 185q-166 -14 -348 -14q-41 0 -75.5 30.5t-34.5 65.5z" />
<glyph unicode="," horiz-adv-x="430" d="M0 -286.5q0 20.5 26.5 54t59.5 66.5t59.5 87t26.5 110q0 33 -42 57.5t-42 49t22.5 57t51.5 32.5q55 0 98 -49t43 -117q0 -113 -102.5 -240.5t-169.5 -127.5q-31 0 -31 20.5z" />
<glyph unicode="-" horiz-adv-x="860" d="M113 582q0 39 226 81t334.5 42t108.5 -41q0 -25 -50 -39.5t-285.5 -60.5t-259 -46t-49 22.5t-25.5 41.5z" />
<glyph unicode="." horiz-adv-x="485" d="M139 142q0 38 28 73t57.5 35t72.5 -92t43 -140q0 -8 -14.5 -19t-26.5 -11q-45 0 -102.5 58t-57.5 96z" />
<glyph unicode="/" horiz-adv-x="802" d="M53 -80q0 109 664 1583q8 16 12 26.5t7 15.5t5 8l4 6q8 4 15 4q16 0 45 -42t29 -81t-64.5 -178.5t-166 -344t-152.5 -327.5q-220 -524 -269 -634t-65.5 -110t-40 29t-23.5 45z" />
<glyph unicode="0" horiz-adv-x="1009" d="M127 379q0 244 87 501t219 421.5t255 164.5q223 0 223 -495q0 -203 -78.5 -422t-199.5 -363.5t-228.5 -144.5t-192.5 99.5t-85 238.5zM258 416q0 -258 156 -258q63 0 150 128t153.5 321.5t66.5 355.5q0 391 -112 391q-49 0 -120 -92.5t-136.5 -227.5t-111.5 -306 t-46 -312z" />
<glyph unicode="1" horiz-adv-x="657" d="M164 111q0 41 43 203.5t103.5 458.5t92.5 622q6 63 39 63t58.5 -41t25.5 -102.5t-28.5 -256t-59 -316t-61.5 -248.5t-49.5 -197t-40.5 -145q-39 -143 -72 -144q-18 0 -34.5 31t-16.5 72z" />
<glyph unicode="2" horiz-adv-x="1187" d="M121 178q0 33 79 98.5t190.5 150.5t223 186.5t190.5 234.5t79 247.5t-48.5 178t-126 63.5t-144 -38.5t-109.5 -77.5t-54 -39q-27 0 -54.5 16t-27.5 41q0 53 127 138t236 85q145 0 237.5 -97t92.5 -231.5t-58.5 -260t-171.5 -248.5q-205 -223 -563 -473q55 4 349 51 t346.5 47t72 -4t19.5 -25q0 -49 -299 -111.5t-426 -62.5q-57 0 -108.5 39t-51.5 92z" />
<glyph unicode="3" horiz-adv-x="1196" d="M137 92q0 12 125 33.5t275.5 51.5t275.5 110t125 192q0 72 -133 115t-267.5 64.5t-134.5 40t7 24.5q6 23 68.5 56.5t144.5 72.5t163.5 87t138 115.5t56.5 143.5q0 133 -152 133q-117 0 -288 -98q-57 -33 -69.5 -33t-44.5 27.5t-32 44.5q0 49 155 111.5t273.5 62.5 t203.5 -83t85 -182.5t-92 -193.5q-156 -154 -426 -252q217 -12 359.5 -80.5t142.5 -183.5t-122 -217t-297 -159.5t-357.5 -57.5t-182.5 55z" />
<glyph unicode="4" horiz-adv-x="1134" d="M176 682q0 125 116 314.5t241.5 320.5t166.5 131q63 0 64 -45q0 -29 -232 -279q-86 -94 -157.5 -218t-71.5 -218q0 -156 154 -156q86 0 178 29q137 41 182 57.5t53 18.5q25 168 25 334q0 67 35 67q23 0 56.5 -32.5t33.5 -69.5q0 -221 -103.5 -586.5t-168.5 -365.5 q-29 0 -29 39.5t22 107.5q80 252 111 401q-213 -111 -399 -110q-115 0 -196 67.5t-81 192.5z" />
<glyph unicode="5" horiz-adv-x="1132" d="M104 326q0 39 25 39q4 0 53 -51.5t121 -101.5t133 -50q113 0 242 105.5t129 211.5q0 104 -158 209q-66 45 -131 91t-111.5 107.5t-46.5 136.5t92.5 215t143.5 155q47 18 156.5 32.5t227.5 14.5t181.5 -9.5t63.5 -37.5q0 -31 -381 -78q-150 -20 -182 -27 q-43 -8 -106.5 -119.5t-63.5 -162t68.5 -114t151.5 -117.5t151.5 -128t68.5 -143q0 -162 -153.5 -306.5t-327.5 -144.5q-133 0 -240 96.5t-107 176.5z" />
<glyph unicode="6" horiz-adv-x="1155" d="M135 364.5q0 155.5 97.5 363.5t222.5 360.5t236.5 257t143 104.5t59.5 -15.5t28 -28.5t-81 -90t-207 -214t-212 -275q250 -23 404.5 -127t154.5 -213q0 -164 -183.5 -304t-383.5 -140q-121 0 -200 83t-79 238.5zM258 324q0 -84 46 -126t120 -42q139 0 282.5 101 t143.5 220q0 90 -130 168t-345 103q-117 -219 -117 -424z" />
<glyph unicode="7" horiz-adv-x="931" d="M217 1382q0 6 92 23q242 43 403 43t206 -29q27 -16 44 -59t17 -83t-51 -136.5t-157.5 -264t-152 -244.5t-142.5 -253t-146 -257t-65.5 -81t-31 28.5t-14.5 51.5q0 68 315.5 588t315.5 571q0 18 -23.5 32.5t-77 14.5t-216 -27.5t-201.5 -27.5t-77 40t-38 70z" />
<glyph unicode="8" horiz-adv-x="1245" d="M205 1165q0 66 24 66q8 0 69.5 -54.5t216.5 -176t200 -158.5q188 154 265 226.5t106.5 117.5t29.5 82q0 88 -133 88q-98 0 -242.5 -44t-169 -44t-62.5 26.5t-38 48.5q0 41 168 86.5t310.5 45.5t218 -60.5t75.5 -158t-113.5 -215t-322.5 -279.5q205 -186 205 -297 q0 -154 -178.5 -284t-350.5 -130q-94 0 -183 69.5t-89 161t106.5 207t303.5 277.5q-27 23 -81.5 64.5t-85 66.5t-75.5 61.5t-71.5 62.5t-53.5 52q-49 55 -49 92zM338 277.5q0 -44.5 41 -81t102 -36.5q131 0 265.5 99t134.5 222q0 63 -168 207q-291 -225 -348 -319 q-27 -47 -27 -91.5z" />
<glyph unicode="9" horiz-adv-x="978" d="M145 844.5q0 111.5 80 256t210 249t239.5 104.5t168 -64.5t58.5 -137t-18 -119.5q51 -2 51 -80q0 -47 -51.5 -181.5t-88 -245t-68.5 -278.5t-48 -249t-37 -81q-57 0 -57 111q0 174 159 666q-80 -90 -173 -148.5t-188 -58.5t-166 72.5t-71 184zM260 827q0 -59 40 -93 t90 -34t88 11.5t75 40.5l61 49q25 20 59 66t48 64.5t46 69t36 56.5q-37 4 -37 33q0 18 12.5 64t12.5 71q0 106 -103 106q-141 0 -284.5 -185t-143.5 -319z" />
<glyph unicode=":" horiz-adv-x="503" d="M72 151.5q0 38.5 25.5 75.5t52.5 37q35 0 75.5 -97t40.5 -149q0 -10 -12.5 -20t-24.5 -10q-43 0 -100 62.5t-57 101zM262 907q0 39 25.5 77t52.5 38q35 0 77 -97.5t42 -148.5q0 -10 -12.5 -21.5t-26.5 -11.5q-43 0 -100.5 62.5t-57.5 101.5z" />
<glyph unicode=";" horiz-adv-x="626" d="M-10.5 -352.5q0.5 20.5 27 54.5t59.5 66.5t59.5 87t26.5 109.5q0 33 -42 57.5t-42 49t22.5 57.5t51.5 33q55 0 98 -49t43 -117q0 -113 -102.5 -241t-170.5 -128q-31 0 -30.5 20.5zM268 907q0 39 27 77t51 38q35 0 77 -97.5t42 -148.5q0 -10 -12.5 -21.5t-26.5 -11.5 q-43 0 -100.5 62.5t-57.5 101.5z" />
<glyph unicode="&#x3c;" horiz-adv-x="1175" d="M244 612q0 27 24.5 67t48.5 60q94 76 374 188.5t376 112.5q39 0 59.5 -19.5t20.5 -31.5t-2 -17t-7 -9.5t-9.5 -7.5t-12.5 -6t-14 -5t-16.5 -5t-126 -41t-336 -130t-220.5 -139q0 -35 314.5 -174.5t314.5 -169t-63.5 -29.5t-239.5 67.5t-330.5 155.5t-154.5 133z" />
<glyph unicode="=" horiz-adv-x="1247" d="M113 475q0 35 400 81t516 46t116 -45q0 -29 -110.5 -51.5t-419 -63.5t-447.5 -41q-20 2 -37.5 29t-17.5 45zM166 881q2 39 391 79.5t514 40.5t125 -47q0 -25 -62.5 -40t-435 -61t-475.5 -46q-20 0 -38.5 26.5t-18.5 47.5z" />
<glyph unicode="&#x3e;" horiz-adv-x="1087" d="M168 274q0 31 163 118t325.5 168t162.5 97q0 49 -168 139.5t-278 123.5q-37 10 -68 45.5t-31 55t45 19.5q117 -2 302.5 -98t291.5 -197q20 -20 38 -55t18 -52t-10.5 -32.5t-33 -33t-45 -32t-61.5 -35t-66.5 -34.5t-75.5 -36.5t-75 -37.5q-287 -147 -391 -147 q-43 0 -43 24z" />
<glyph unicode="?" horiz-adv-x="960" d="M231 142q0 38 27 73t56.5 35t71.5 -92t42 -140q0 -8 -13.5 -18t-25.5 -10q-45 0 -101.5 57t-56.5 95zM307 1323q0 109 94.5 192.5t221.5 83.5t219 -83.5t92 -223.5q0 -78 -58.5 -172t-130.5 -168q-205 -207 -247.5 -312t-58 -132t-33.5 -27q-41 0 -41 82t45 159 t110.5 147.5t130.5 140.5q154 166 154 288q0 78 -55.5 129.5t-131 51.5t-133 -47.5t-57.5 -116.5q0 -23 8 -40.5t8 -30.5t-21.5 -22.5t-41 -9.5t-47 40t-27.5 71z" />
<glyph unicode="@" horiz-adv-x="1851" d="M84 229q0 154 49 324t146.5 329.5t227.5 287.5t306 206t369 78q281 0 434 -180t153 -442.5t-167.5 -477.5t-356.5 -215q-57 0 -103 39t-57 105q-156 -197 -305 -197q-94 0 -178 68.5t-84 150.5q0 129 90 308.5t226.5 312.5t241 133t160.5 -85t56 -158t-49 -126 q23 -18 23 -41.5t-44 -127t-44 -158t25.5 -89t68.5 -34.5q113 0 244 179t131 402t-110 375t-351 152q-205 0 -392.5 -107.5t-313.5 -272.5t-200.5 -359.5t-74.5 -387t126 -323.5t324 -131q147 0 268 26.5t188 53t82 26.5t15 -16q0 -68 -189.5 -131.5t-365.5 -63.5 q-260 0 -414.5 166t-154.5 401zM633 303q0 -49 44 -83t93 -34q109 0 225.5 140.5t165.5 343.5q6 31 37 37q-2 12 -2 72.5t-25.5 119.5t-74.5 59q-78 0 -189.5 -119.5t-192.5 -276t-81 -259.5z" />
<glyph unicode="A" horiz-adv-x="1220" d="M96 133q0 14 146 352q-47 -10 -62 -10q-82 0 -82 51q0 33 201 95q238 569 295 685.5t83 144.5t75 28q57 0 105 -203t81 -496q94 18 144 18q1 0 2 1q49 0 49 -43q0 -27 -185 -80q27 -260 27 -450.5t-49 -190.5q-59 0 -68 162q-12 240 -31 446q-338 -90 -444 -119 q-174 -428 -194.5 -458.5t-26.5 -30.5q-25 0 -45.5 29.5t-20.5 68.5zM440 664q229 61 377 92q-37 336 -92 565q-150 -327 -285 -657z" />
<glyph unicode="B" horiz-adv-x="1318" d="M14 217q0 39 23 39q12 0 37 -20q80 -66 172 -76q-33 33 -33 100q0 31 59 211q180 543 181 809q0 14 2 18l-60 -2q-33 0 -61.5 29t-28.5 52.5t85 43t200 19.5q287 0 433 -80t146 -215q0 -281 -481 -371h49q199 0 325 -79t126 -183q0 -180 -257 -323.5t-593 -143.5 q-143 0 -233.5 54.5t-90.5 117.5zM281 156h18q283 0 518.5 112.5t235.5 251.5q0 72 -155 121t-333 49q-31 0 -58.5 17.5t-35.5 37.5q-14 -53 -44 -158.5t-44 -158.5q-66 -229 -102 -272zM481 786q25 23 130.5 57t143.5 47t100.5 42t94.5 55q88 68 88 150t-94 133t-225 51 q-68 0 -197 -14q51 -47 51 -95q0 -76 -92 -426z" />
<glyph unicode="C" horiz-adv-x="1206" d="M166 416.5q0 148.5 78 328t194.5 332t269 257t289.5 104.5q51 0 100.5 -49.5t49.5 -81t-11.5 -31.5t-56.5 18.5t-86 18.5q-80 0 -199.5 -83t-229 -208t-188.5 -290t-79 -294t79 -192.5t193.5 -63.5t226 46t181.5 91.5t84 45.5t22.5 -9.5t8.5 -19.5q0 -35 -86 -102.5 t-217.5 -125t-233.5 -57.5q-152 0 -270.5 108.5t-118.5 257z" />
<glyph unicode="D" horiz-adv-x="1296" d="M195 206.5q0 69.5 118.5 505t118.5 556.5q0 37 2 47q-59 16 -90 42.5t-31 53.5q0 37 41 37q178 0 380 -97.5t346.5 -268.5t144.5 -353q0 -129 -166 -297t-385 -284.5t-367 -116.5q-41 0 -76.5 53t-35.5 122.5zM317 158q113 4 255.5 73.5t254 161.5t189.5 187.5t78 152.5 q0 164 -173 334t-399 229q27 -43 27 -90t-3 -72.5t-11.5 -63.5t-16.5 -71.5t-24.5 -93t-28.5 -105.5t-35.5 -130t-40.5 -146q-49 -166 -72 -366z" />
<glyph unicode="E" horiz-adv-x="1236" d="M170 186q0 94 64.5 300t129 437.5t64.5 389.5q0 41 7 48t7 9q55 66 433 66t378 -39q0 -29 -72.5 -40t-179.5 -20q-133 -10 -154.5 -11t-63.5 -4t-133 -15.5t-101 -14.5v-20q0 -139 -92 -469l63 -2q106 0 222 10t184.5 10t68.5 -18q0 -106 -549 -107q-14 0 -20 2 q-129 -406 -129 -485q0 -31 19.5 -48.5t48.5 -17.5q260 0 542 82q96 27 111 27q25 0 24 -37q0 -55 -226 -124.5t-417 -69.5q-94 0 -161.5 48t-67.5 113z" />
<glyph unicode="F" horiz-adv-x="1048" d="M131 134.5q0 23.5 125 504.5t131 674q0 31 16 55q37 68 419 68t382 -43q0 -25 -64.5 -34t-108.5 -13.5t-126 -11.5t-218 -21.5t-185 -16.5q2 -10 2 -28q0 -123 -86 -475q170 0 298 10t181 9.5t53 -17.5q0 -23 -64.5 -48.5t-194.5 -44t-288 -18.5h-12 q-23 -88 -60.5 -232.5t-47.5 -187.5q-57 -229 -78 -229t-47.5 38t-26.5 61.5z" />
<glyph unicode="G" horiz-adv-x="1265" d="M121 399q0 199 130 445t328.5 422t370.5 176q55 0 105.5 -54.5t50.5 -87t-21 -32.5q-8 0 -49 19.5t-82 19.5q-123 0 -288.5 -141.5t-287.5 -356.5t-122 -399q0 -102 63.5 -174t151.5 -72t215 117.5t262 324.5q-141 -47 -195.5 -47t-87 24.5t-32.5 45.5q0 57 311 57 q47 0 87 -46t40 -89q0 -92 -106.5 -416.5t-149.5 -324.5t-43 59q0 53 74 264t106 322q-102 -195 -237 -308.5t-256 -113.5t-229.5 115.5t-108.5 250.5z" />
<glyph unicode="H" horiz-adv-x="1392" d="M154 149.5q0 49.5 110 460.5h-14q-23 0 -44.5 18.5t-21.5 45.5q0 20 109 47q143 537 143 668q0 35 6.5 47t28 12t50 -46t28.5 -97q0 -117 -117 -551q365 70 627 88q110 416 110 545q0 37 6.5 49t29 12t52 -45t29.5 -115.5t-96 -445.5q88 -6 88 -41q0 -31 -113 -49 q-51 -174 -96 -352.5t-63 -239.5q-37 -121 -55.5 -121t-40 31.5t-21.5 79t143 583.5q-262 -33 -317.5 -42t-315.5 -60q-20 -72 -65 -241t-64 -230q-37 -121 -53 -121t-39.5 30.5t-23.5 80z" />
<glyph unicode="I" horiz-adv-x="636" d="M158 147q0 43 134 573.5t134 661.5q0 37 5 48.5t29.5 11.5t54.5 -45t30 -97q0 -137 -152 -694q-16 -57 -40.5 -154.5t-41 -156.5t-35.5 -123q-37 -127 -49 -127q-20 0 -44.5 29.5t-24.5 72.5z" />
<glyph unicode="J" horiz-adv-x="937" d="M10 293q0 37 31 37q12 0 62.5 -47t124 -94.5t143.5 -47.5q80 0 140 147.5t167.5 532.5t206.5 531q-127 -18 -298 -67.5t-204 -49.5q-61 0 -61 33q0 51 242.5 123.5t338.5 72.5q39 0 67.5 -15t28.5 -46t-26.5 -107.5t-81.5 -232.5t-103 -313q-139 -477 -204.5 -600 t-191.5 -123t-254 101.5t-128 164.5z" />
<glyph unicode="K" horiz-adv-x="1198" d="M139 155q0 46 140.5 571t140.5 656q0 37 5 48.5t28.5 11.5t48 -45t24.5 -97q0 -137 -139 -636q184 266 432 520t301 254q39 0 63.5 -15.5t24.5 -37t-94 -103.5q-367 -328 -567 -590q0 -90 43 -196.5t124 -170t179 -109.5t153.5 -78t55.5 -64q0 -27 -64.5 -27t-155.5 36 t-184.5 100.5t-164 175t-87.5 241.5q-92 -121 -200 -455q-31 -98 -43 -98q-20 0 -42 31t-22 77z" />
<glyph unicode="L" horiz-adv-x="1118" d="M150 207q0 74 135 557t135 622q0 35 6 47.5t29.5 12.5t53.5 -43t30 -92q0 -139 -130 -584.5t-130 -488.5t19 -61.5t48 -18.5q254 0 535 84q90 27 107 27v-1q16 0 20 -3t4 -17q0 -61 -219.5 -136t-411.5 -75q-94 0 -162.5 48t-68.5 122z" />
<glyph unicode="M" horiz-adv-x="1650" d="M139 155q0 46 139.5 571t139.5 656q0 37 6 48.5t26.5 11.5t57.5 -40t43 -85q25 -156 283 -701q244 297 359.5 443.5t180.5 226.5q123 150 164 150q27 0 60.5 -34t33.5 -58.5t-4 -51t-14 -69.5t-19.5 -81t-28 -104.5t-30.5 -111.5q-96 -322 -139 -512q-82 -367 -99 -367 q-23 0 -42 32t-19 81q0 102 93 483t183 625q-381 -473 -512 -621.5t-182 -148.5t-93 69.5t-111.5 228t-122.5 314.5q-39 -236 -123 -520q-18 -61 -43 -151.5t-42.5 -151t-35.5 -119.5q-37 -121 -47 -121q-18 0 -40 31t-22 77z" />
<glyph unicode="N" horiz-adv-x="1437" d="M131 147.5q0 47.5 141.5 581t141.5 662.5q0 37 5 48t23.5 11t50 -36t46 -97.5t185.5 -479t282 -657.5q88 223 139 502t59 414t8.5 244.5t47.5 109.5q25 0 54 -39t29 -76q0 -190 -48 -493t-130 -553t-161 -250q-53 0 -94.5 81t-206 476t-209.5 522q-88 -330 -170 -648 t-99 -374.5t-28 -56.5q-16 0 -41 30.5t-25 78z" />
<glyph unicode="O" horiz-adv-x="1249" d="M135 422q0 244 111.5 487.5t272.5 392t310.5 148.5t258 -149.5t108.5 -339t-109.5 -405.5t-288 -366.5t-352.5 -150.5q-127 0 -219 126t-92 257zM258 450.5q0 -139.5 63.5 -218t143.5 -78.5q111 0 253 130t243.5 316t101.5 350t-74 270.5t-151.5 106.5t-175 -81 t-187.5 -203.5t-153.5 -287.5t-63.5 -304.5z" />
<glyph unicode="P" horiz-adv-x="1103" d="M111 131q0 45 133 510t143 627q-39 23 -39 62.5t127 79.5t246 40q170 0 286.5 -93t116.5 -245q0 -410 -770 -561q-154 -522 -174 -522t-44.5 28.5t-24.5 73.5zM387 664q281 59 449 179t168 255q0 104 -80 170.5t-182.5 66.5t-243.5 -53q10 -31 10 -59q0 -127 -121 -559z " />
<glyph unicode="Q" horiz-adv-x="1292" d="M143 436q0 176 64.5 365.5t164 328t221.5 225.5t230 87q156 0 267.5 -147.5t111.5 -337t-104.5 -401.5t-266.5 -351q33 -86 78 -189q86 -205 86 -237q0 -27 -37.5 -27t-97 106.5t-123.5 276.5q-139 -88 -276 -88t-227.5 106.5t-90.5 282.5zM260 442q0 -131 61.5 -208.5 t155.5 -77.5t219 98q-147 442 -147 739q0 111 35 197q-135 -135 -229.5 -343t-94.5 -405zM670 1026q0 -324 114 -690q123 129 205 297t82 325.5t-75 261t-165 103.5q-53 0 -114 -33q-47 -86 -47 -264z" />
<glyph unicode="R" horiz-adv-x="1177" d="M111 142q0 46 121.5 495.5t136.5 615.5q-18 10 -34 33t-16 43q0 41 128 81t245 40q182 0 298 -69.5t116 -213.5q0 -102 -62.5 -189t-151.5 -140.5t-179 -92t-152.5 -64.5t-62.5 -38q0 -61 327 -348q27 -23 67 -55.5t64.5 -53t51.5 -43.5q49 -45 49 -67q0 -31 -41 -31 q-63 0 -220 119t-291 268.5t-143 224.5q-66 -240 -93 -336t-44 -157q-37 -123 -47 -123q-20 0 -43.5 27.5t-23.5 73.5zM371 686q23 31 127 81t209.5 98t192.5 132t87 170q0 158 -250 158q-104 0 -260 -53q8 -18 8 -49q0 -127 -114 -537z" />
<glyph unicode="S" horiz-adv-x="1062" d="M12 328q0 35 25 34q14 0 60 -48t124 -97t170 -49q176 0 289 75.5t113 182.5q0 63 -75 154.5t-164 168t-164 167t-75 151.5q0 35 18.5 82t39.5 74q63 78 229 148.5t270 70.5q51 0 86 -24.5t35 -53.5q0 -16 -42 -25.5t-130 -29t-164 -49.5q-227 -92 -227 -189 q0 -47 248 -268q92 -82 170 -187.5t78 -183.5q0 -164 -144.5 -272.5t-357.5 -108.5q-162 0 -287 98.5t-125 178.5z" />
<glyph unicode="T" horiz-adv-x="1085" d="M137 1402.5q0 24.5 86 29t576 4.5q158 0 288 -36t130 -73q0 -20 -61.5 -20t-179.5 9t-237 11q6 -23 6 -41q0 -129 -155 -696q-23 -80 -62 -242t-61.5 -234.5t-38.5 -72.5q-23 0 -47.5 27.5t-24.5 74.5t127.5 533.5t141.5 650.5l-408 -18q-25 0 -52.5 34.5t-27.5 59z" />
<glyph unicode="U" horiz-adv-x="1226" d="M203 391.5q0 149.5 88 496.5t88 494q0 37 5 48.5t27.5 11.5t56.5 -45t34 -117t-89 -412t-89 -458.5t51 -196.5t130 -78t166 81t163.5 213t128 323.5t51.5 390.5q0 70 -7.5 156.5t-7.5 108.5t6.5 28t22.5 6q37 0 76 -50.5t39 -146.5q0 -537 -196.5 -881t-450.5 -344 q-127 0 -210 111t-83 260.5z" />
<glyph unicode="V" horiz-adv-x="1089" d="M160 1393q0 49 22 49q29 0 59.5 -36t42.5 -75t71 -447.5t137 -668.5q98 279 348 753t313 474q18 0 37.5 -14.5t19.5 -41t-37.5 -92t-130 -220t-167 -302t-137 -279t-97.5 -207t-68 -141.5q-57 -120 -87 -120h-1q-37 0 -91 129t-144 624.5t-90 614.5z" />
<glyph unicode="W" horiz-adv-x="1597" d="M164 205.5q0 66.5 61.5 524.5t61.5 640q0 72 41 72q29 0 66.5 -38t37.5 -77t-31 -229q-104 -645 -127 -895q139 219 308.5 421.5t224.5 202.5q41 0 67.5 -101t39 -224t45 -224.5t85.5 -101.5q133 0 230.5 192.5t97.5 434.5q0 170 -65 327q-33 74 -86.5 121t-110.5 47 t-101 37t-44 64q0 43 90 43q211 0 325.5 -187.5t114.5 -470.5q0 -184 -62.5 -354t-167 -275.5t-221.5 -105.5q-135 0 -192 189q-53 168 -72 444q-53 -68 -139 -185.5t-164 -222.5q-174 -229 -235 -229q-29 0 -53.5 47t-24.5 113.5z" />
<glyph unicode="X" horiz-adv-x="1320" d="M80 93q0 11 4 19.5t8 13.5t37 38q150 154 444 528q-278 477 -278 711q0 39 24 39q45 0 83 -26.5t38 -61.5q0 -203 215 -555q342 446 430.5 544.5t133.5 98.5q16 0 44.5 -28t28.5 -39t-3 -17t-13 -15.5t-19 -15.5q-66 -47 -98.5 -82t-82.5 -97.5l-90 -112.5t-124 -158 q-139 -178 -141 -181q61 -94 170.5 -250.5t161 -238.5t51.5 -121t-27 -39q-47 0 -176 160t-266 383q-319 -401 -385 -472t-115 -71q-16 0 -35.5 17.5t-19.5 28.5z" />
<glyph unicode="Y" horiz-adv-x="1191" d="M207 1331q0 45 14.5 74t38 29t43 -64.5t52 -183.5t87 -225.5t128 -169t128.5 -62.5q35 0 136.5 176t204 352.5t143.5 176.5q61 0 61 -54q0 -29 -61.5 -132t-176 -290.5t-178 -306.5t-128 -239.5t-94.5 -176t-64 -116.5q-63 -104 -97 -105q-25 0 -24.5 36t18 85t62.5 139 q68 139 172 340q-121 23 -230.5 143t-172 277.5t-62.5 296.5z" />
<glyph unicode="Z" horiz-adv-x="1241" d="M133 218.5q0 62.5 92 169t224.5 219t263.5 224.5q315 268 315 386q0 35 -106.5 61.5t-214 26.5t-212 -16.5t-135 -16.5t-65.5 32q-37 33 -37 64q0 28 143 51q74 12 168 13q381 0 525 -136q57 -55 57 -106q0 -86 -139.5 -238.5t-304.5 -287.5q-444 -367 -445 -437 q0 -18 17.5 -36.5t50.5 -18.5q115 0 382 38t307 38t47 -7.5t7 -29.5q0 -31 -106.5 -68t-288.5 -63.5t-365 -26.5q-68 0 -124 51.5t-56 114z" />
<glyph unicode="[" horiz-adv-x="917" d="M166 35.5q0 70.5 198.5 710.5t198.5 774q0 23 6 34v5q7 65 308 65q197 0 196 -55q0 -25 -47 -34t-156.5 -20.5t-144.5 -16.5t-45 -5q6 -23 6 -41q0 -115 -250 -905q-139 -446 -139 -494.5t55.5 -48.5t164 11.5t126.5 11.5q31 0 31 -25q0 -47 -106.5 -82t-191.5 -35 t-147.5 40t-62.5 110.5z" />
<glyph unicode="\" horiz-adv-x="1228" d="M264 1440q0 39 29 81t45 42q18 0 29 -27q6 -16 14 -33q663 -1474 663 -1583q0 -16 -23.5 -45t-39.5 -29t-65.5 110t-268.5 634q-51 123 -152.5 327.5t-166 344t-64.5 178.5z" />
<glyph unicode="]" horiz-adv-x="841" d="M-39 -27q0 25 27.5 25t130 -14.5t154 -14.5t63.5 54q39 145 157.5 693t118.5 652q0 12 4 33q-47 6 -145 6q-213 0 -213 45q0 39 100.5 58.5t208.5 19.5q174 0 174 -70v-22q0 -162 -101 -662t-173 -784q-18 -74 -62.5 -108t-137.5 -34t-199.5 40t-106.5 83z" />
<glyph unicode="^" horiz-adv-x="864" d="M158 1229q0 51 53 164.5t119.5 205t103.5 91.5q76 0 101 -35q18 -23 44.5 -102.5t83 -215t56.5 -147.5q0 -31 -25 -31q-43 0 -111.5 127t-123.5 266q-86 -88 -164 -243q-53 -106 -71.5 -118.5t-30.5 -12.5q-35 0 -35 51z" />
<glyph unicode="_" horiz-adv-x="1232" d="M113 59.5q0 26.5 160.5 45t370.5 18.5t351 -19q97 -12 97 -53q0 -27 -101 -33q-170 -10 -305 -11t-315.5 -12t-200.5 -10t-38.5 24.5t-18.5 50z" />
<glyph unicode="`" horiz-adv-x="387" d="M20 1620q0 18 23 47t42 29t28.5 -5t23 -17.5t24.5 -26t32.5 -37t38 -42t34 -37t27.5 -28.5t22.5 -23.5t18.5 -20.5t12 -15t9 -13.5t5 -11.5q6 -10 6.5 -23.5t-13 -25.5t-28 -12t-35 13t-59 45t-56 45.5t-40 29.5t-34 25.5t-28 21.5t-23.5 20.5t-15 17.5t-11.5 17.5 t-3.5 26.5z" />
<glyph unicode="a" horiz-adv-x="915" d="M0 264q0 131 91 312.5t228.5 316.5t244 135t164.5 -88t58 -158.5t-45 -132.5q18 -20 19 -53q0 -131 -21.5 -248t-27.5 -186.5t-13.5 -98t-25.5 -28.5q-35 0 -45.5 66.5t-10.5 205.5q-63 -113 -160.5 -192.5t-190.5 -79.5t-179 71.5t-86 157.5zM127 262q0 -45 42 -75.5 t89 -30.5q106 0 217 137t168 338q6 35 37 43q-2 14 -2 68.5t-23.5 109.5t-70.5 55q-78 0 -187.5 -117.5t-189.5 -272.5t-80 -255z" />
<glyph unicode="b" horiz-adv-x="1028" d="M49 128q0 36 62.5 251t126 537.5t63.5 623.5q0 35 7 48.5t32 13.5t53.5 -44.5t28.5 -93.5q0 -332 -119 -827q250 401 481 401q96 0 154.5 -89t58.5 -228t-76.5 -305t-200.5 -276.5t-245 -110.5q-164 0 -287 174q-49 -168 -69.5 -168t-45 28.5t-24.5 64.5zM231 311 q92 -164 230.5 -164t272.5 184.5t134 401.5q0 178 -96 178q-123 0 -279 -180t-262 -420z" />
<glyph unicode="c" horiz-adv-x="864" d="M72 333q0 132 84 297t216 281.5t253 116.5q90 0 146 -64.5t56 -105.5t-24.5 -41t-76.5 44t-93 44q-82 0 -186.5 -100t-177 -239.5t-72.5 -226.5t48 -135t135 -48t162.5 24.5t120 48t64.5 23.5q29 0 29 -33q0 -43 -135.5 -113.5t-249 -70.5t-206.5 83t-93 215z" />
<glyph unicode="d" horiz-adv-x="978" d="M35 275.5q0 91.5 46 220.5t118.5 247.5t177 201.5t209.5 83q158 0 205 -209q102 434 120 721q0 35 6.5 48.5t31 13.5t54 -44.5t29.5 -101.5t-46 -311t-155.5 -682t-142.5 -428q-23 0 -45 25.5t-22 55t28 158.5q-88 -104 -190.5 -171.5t-196.5 -67.5t-160.5 74.5 t-66.5 166zM158 258q0 -47 39 -80t84 -33q94 0 239 129q164 147 215 326q0 131 -36.5 219t-104.5 88q-92 0 -196.5 -107.5t-172 -260t-67.5 -281.5z" />
<glyph unicode="e" horiz-adv-x="878" d="M31 355.5q0 142.5 73.5 300t192.5 265t234.5 107.5t209 -107.5t93.5 -215t-109 -170t-250 -62.5t-297 39q-33 -104 -33 -186t57.5 -128t152 -46t201 38.5t120.5 38.5q37 0 37 -32q0 -41 -121 -101.5t-221 -60.5q-141 0 -240.5 89t-99.5 231.5zM213 598q119 -29 236.5 -29 t192.5 40t75 104.5t-55.5 132t-114.5 67.5q-92 0 -183.5 -90t-150.5 -225z" />
<glyph unicode="f" horiz-adv-x="704" d="M86 866q0 33 184 72q31 6 45 10q37 150 70 309q70 340 283 340q106 0 163.5 -73.5t57.5 -158.5t-33 -85q-27 0 -45 52t-48 103.5t-83 51.5q-55 0 -88 -45q-37 -51 -53 -113q-33 -106 -93 -358q74 10 134 10q108 0 108 -44q0 -26 -41 -38q-66 -18 -231 -49 q-199 -823 -256 -823q-18 0 -39 25.5t-21 46t23.5 107.5t73 266t90.5 351q-92 -18 -121 -18t-54.5 20.5t-25.5 40.5z" />
<glyph unicode="g" horiz-adv-x="964" d="M-23 -266q0 18 12.5 40.5t29 22.5t42 -29.5t49 -64.5t77 -64.5t106.5 -29.5t83 22.5t50 56t41.5 94t36.5 114.5q51 190 80 282q-174 -143 -295 -143q-94 0 -165 72.5t-71 162.5q0 133 86 311.5t221.5 312.5t251 134t174 -110.5t58.5 -233.5v-20q20 -27 20 -72 q0 -88 -88 -211q-70 -156 -166 -496q-27 -98 -63 -190q-74 -186 -227 -187h-2q-151 0 -246 73t-95 153zM172 262q0 -47 33 -76.5t78 -29.5q125 0 265 129t216 329q-14 25 -25 78q-25 164 -67 199q-18 16 -47 16q-88 0 -197 -118.5t-182.5 -271t-73.5 -255.5z" />
<glyph unicode="h" horiz-adv-x="1069" d="M53 119.5q0 25.5 25 118.5q100 352 139 553q86 436 86 735q0 45 8 60.5t35 15.5t55.5 -45.5t28.5 -94.5q0 -164 -58.5 -500.5t-181.5 -682.5q244 426 377 587.5t230 161.5q49 0 113.5 -81t64.5 -179t-65.5 -304t-116 -317.5t-95.5 -111.5q-33 0 -32.5 35.5t18.5 94 t53 154.5q117 317 117 453q0 45 -27.5 77t-52.5 32q-59 0 -134 -92.5t-157 -216t-89 -134t-17 -27t-37 -56.5t-86 -136q-115 -184 -127 -184q-20 0 -47 29.5t-27 55z" />
<glyph unicode="i" horiz-adv-x="462" d="M63 95.5q0 25.5 19.5 94t50.5 174t48.5 174t39 159.5t32.5 140.5t25.5 99.5t27.5 70.5t31.5 20.5t41 -27.5t22.5 -54.5q0 -137 -208 -796q-39 -115 -80 -115q-20 0 -35 17.5t-15 43zM367 1337.5q0 34.5 23.5 61t52 26.5t65.5 -69.5t37 -100.5q0 -51 -35 -51 q-43 0 -93 49.5t-50 84z" />
<glyph unicode="j" horiz-adv-x="514" d="M-410 -262q0 16 13.5 39.5t25 23.5t24.5 -12t39.5 -45t37.5 -45q74 -88 143.5 -88t119.5 114.5t130 494.5t172 734q20 74 39 74q23 0 46 -25.5t23 -68.5q0 -51 -270 -1133q-37 -147 -96.5 -218.5t-158.5 -71.5t-193.5 85t-94.5 142zM377 1337.5q0 34.5 23.5 61t52 26.5 t65.5 -69.5t37 -100t-11.5 -41t-21.5 -10.5q-43 0 -94 49.5t-51 84z" />
<glyph unicode="k" horiz-adv-x="933" d="M61 135q0 33 66 265.5t131.5 558t65.5 587.5q0 33 8 44.5t32.5 11.5t50 -44.5t25.5 -93.5q0 -451 -254 -1245q348 510 545 719q86 90 111.5 90t48 -23.5t22.5 -41t-57 -77t-127 -131t-127 -171t-57 -179t45 -140t99 -91.5t99.5 -58.5t45.5 -45.5q0 -35 -58 -35 q-94 0 -214 104.5t-120 231.5v22q-176 -227 -234 -292.5t-83 -65.5t-44.5 33.5t-19.5 66.5z" />
<glyph unicode="l" horiz-adv-x="477" d="M61 116.5q0 22.5 61.5 265.5t123 579.5t61.5 588.5q0 31 4 41.5t23.5 10.5t55.5 -42t36 -85q0 -438 -205 -1196q-66 -244 -94 -244q-20 0 -43 29.5t-23 52z" />
<glyph unicode="m" horiz-adv-x="1603" d="M53 113.5q0 19.5 5 44t15.5 62.5t20.5 75q31 92 66 216t48 264t16 197.5t28 57.5q29 0 57.5 -38t28.5 -81q0 -219 -148 -641q248 436 374 597t224 161q47 0 111 -79t64 -174t-43 -243q156 279 257 387.5t189 108.5q53 0 98 -73.5t45 -226.5t-87 -423t-158 -270 q-33 0 -33 41t40 144.5t81 245.5t41 283.5t-54 141.5q-31 0 -57.5 -22.5t-42.5 -39t-39.5 -49t-42 -57.5t-49.5 -72t-52.5 -79.5t-59.5 -93t-60.5 -93.5t-71.5 -127q-115 -223 -147 -223q-16 0 -34.5 20.5t-18.5 44t28.5 97t64.5 155.5t64.5 201t28.5 223q0 47 -27.5 81 t-48 34t-36 -6t-34 -21.5t-35 -33t-40 -48t-43 -57.5t-48 -71t-52 -78.5t-60.5 -92t-73 -111t-95 -149.5q-117 -188 -131 -188q-23 0 -48.5 29.5t-25.5 49z" />
<glyph unicode="n" horiz-adv-x="1067" d="M53 114.5q0 20.5 17 73.5q68 217 86 301q61 262 61 445q0 96 37 96q29 0 57.5 -38t28.5 -101.5t-44 -258t-97 -339.5q238 408 369 571.5t223 163.5q53 0 117.5 -79t64.5 -165q0 -129 -66.5 -332.5t-117 -310t-93.5 -106.5q-33 0 -32.5 34.5t17.5 89t52 148.5 q121 322 121 469q0 47 -27.5 81t-47 34t-36 -7t-36 -23.5t-37 -34t-43 -50.5t-44 -58.5t-50 -71.5t-52.5 -77q-82 -129 -123 -189.5t-100 -156.5q-117 -188 -131 -188q-23 0 -48.5 29.5t-25.5 50z" />
<glyph unicode="o" d="M92 365.5q0 146.5 67.5 301t185.5 258t237.5 103.5t188.5 -101.5t69 -236.5q0 -242 -158 -448.5t-365 -206.5q-102 0 -163.5 92t-61.5 238.5zM215 328q0 -154 104 -191q115 12 209.5 109.5t142.5 220.5t48 217t-32 160.5t-85 91.5q-170 -33 -278.5 -219.5t-108.5 -388.5z " />
<glyph unicode="p" horiz-adv-x="913" d="M-90 -401.5q0 26.5 70 303.5q206 821 206 1067q0 37 6.5 50t31 13t60 -46t35.5 -89t-34 -190q96 160 204.5 245.5t207 85.5t150.5 -100t52 -244.5t-114.5 -304.5t-270.5 -256t-281 -96q-66 0 -104 22q-23 -90 -37 -160.5t-27.5 -129t-29.5 -121.5q-35 -135 -58.5 -135 t-45 29.5t-21.5 56zM152 162q28 -6 63 -6q109 0 236 71.5t223 202.5t96 277q0 207 -89 207t-241 -164q-151 -162 -233 -367z" />
<glyph unicode="q" horiz-adv-x="921" d="M20 270q0 133 92.5 312.5t233.5 312.5t264 133q80 0 148.5 -64.5t68.5 -106.5t-25.5 -42t-78.5 47t-98 47q-90 0 -208 -118.5t-199 -273.5t-81 -255q0 -41 32 -73.5t71 -32.5q129 0 276.5 132t204.5 345q8 29 35.5 29t50 -18.5t22.5 -46.5t-32.5 -124t-124.5 -345 t-166 -464q192 135 270 135q14 0 26.5 -10t12.5 -25q0 -31 -68.5 -67.5t-138 -83.5t-109.5 -74.5t-58.5 -27.5t-38 34.5t-19.5 71.5t92 287t121 327q-78 -86 -177.5 -141t-177 -55t-149.5 76.5t-72 158.5z" />
<glyph unicode="r" horiz-adv-x="643" d="M74 111.5q0 27.5 12 72.5q57 188 85 322.5t28 322.5l-4 111q0 70 10 79t20 9q29 0 57.5 -43t28.5 -92q0 -131 -22 -262q61 129 130.5 222t129 130t106.5 37q90 0 90 -37q0 -27 -63 -53q-121 -47 -194.5 -146.5t-145.5 -256t-109.5 -279.5t-56 -172t-47.5 -49 q-23 0 -39 28.5t-16 56z" />
<glyph unicode="s" horiz-adv-x="827" d="M8 229q0 18 11.5 30.5t26.5 12.5t52 -30q117 -90 242 -90q242 0 242 127q0 55 -60.5 109t-132.5 93t-132 98.5t-60 120.5q0 106 154 217t267 111q66 0 120.5 -68.5t54.5 -106.5t-25 -38t-72 45t-98 45t-161.5 -70.5t-110.5 -140.5q0 -49 137 -137q57 -37 115 -80 q137 -102 137 -200.5t-104.5 -170t-244 -71.5t-249 69.5t-109.5 124.5z" />
<glyph unicode="t" horiz-adv-x="720" d="M72 889q0 37 239 85q35 170 35 286q0 61 31 61q25 0 58.5 -34t33.5 -76t-37 -220q143 20 203 21q106 0 106 -43q0 -25 -49 -39l-289 -60q-45 -180 -109.5 -390t-64.5 -265t56 -55q98 0 200.5 42t110.5 42q29 0 29 -25q0 -49 -114 -116.5t-207 -67.5t-146.5 44 t-53.5 101.5t27 155.5t75 252.5t75 257.5q-113 -20 -136.5 -20.5t-48 22t-24.5 41.5z" />
<glyph unicode="u" horiz-adv-x="980" d="M39 266q0 127 56.5 312.5t127 317.5t111.5 132q23 0 40 -23.5t17 -47t-56 -136t-113.5 -272.5t-57.5 -293q0 -47 29.5 -79t72.5 -32q102 0 222 159t200 343q80 180 115 336q2 8 2 12q0 33 31 33q25 0 51 -38t26 -79q0 -12 -223 -790q-25 -86 -57 -86q-45 0 -45 67.5 t67 280.5q-84 -162 -191.5 -255t-201.5 -93t-158.5 72.5t-64.5 158.5z" />
<glyph unicode="v" horiz-adv-x="864" d="M115 977q0 51 27.5 51t63.5 -28.5t40 -67.5q27 -500 155 -758q43 104 145.5 363.5t154 375t69.5 115.5q23 0 48.5 -19.5t25.5 -43.5q0 -47 -90 -245t-175 -387.5t-118 -247.5t-68 -58q-100 0 -217 526q-61 268 -61 424z" />
<glyph unicode="w" horiz-adv-x="1337" d="M102 963q0 84 50 84q45 0 65 -111q10 -59 17.5 -315t56.5 -480q86 156 180 395.5t154.5 371.5t107.5 132q53 0 74.5 -46.5t21.5 -157.5l-10 -396q0 -201 21 -299q104 115 180 252t111.5 249t60.5 207t44 149.5t46 54.5q49 0 49 -109.5t-98 -342t-215 -403.5t-193 -171 q-29 0 -43 11t-32 52q-35 82 -35 348.5t12 450.5q-174 -453 -278.5 -657.5t-163.5 -204.5q-27 0 -45 18q-74 74 -106 425t-32 493z" />
<glyph unicode="x" horiz-adv-x="821" d="M-31 95.5q0 15.5 47 62.5q184 190 301 334q-233 410 -233 497q0 23 6 31t34 8t68.5 -20.5t40.5 -49.5q0 -98 154 -376q250 330 305.5 388t83 58t52 -19.5t24.5 -37t-11.5 -30.5t-40 -38.5t-56 -55.5t-72.5 -85t-107 -135l-119 -148q16 -27 47 -76t53.5 -84.5t71 -103.5 t71 -101.5t22.5 -47t-12.5 -22.5t-26.5 -9q-74 0 -295 358q-240 -293 -297 -338q-25 -20 -42.5 -20t-43 22.5t-25.5 38z" />
<glyph unicode="y" horiz-adv-x="905" d="M-41 -281q0 18 16.5 41t28.5 23t49 -43q109 -131 211 -131q39 0 75 34.5t75 125.5q57 127 172 471q-139 -205 -301 -205q-94 0 -158 72.5t-64 181t56.5 293t126 315.5t110.5 131q20 0 40 -23.5t20 -49t-56.5 -138t-114 -271.5t-57.5 -290q0 -47 30 -79t73 -32 q76 0 158.5 84t152.5 217q125 246 211 521q10 55 19.5 58t17.5 3q27 0 53.5 -36t26.5 -65.5t-18.5 -88t-62.5 -184.5t-81 -228t-111.5 -308t-119.5 -337q-96 -270 -269 -270q-104 0 -206.5 66.5t-102.5 141.5z" />
<glyph unicode="z" horiz-adv-x="856" d="M10 198.5q0 53.5 102.5 152t225.5 189.5t225.5 183t102.5 133q0 49 -238 49q-45 0 -124 -11t-107.5 -11t-57 27.5t-28.5 54.5q0 63 342 63q174 0 243 -45q33 -20 57.5 -59t24.5 -72q0 -72 -98 -176.5t-215 -188.5q-313 -229 -313 -282q0 -49 75 -49q129 0 311.5 20.5 t211 20.5t42 -5.5t13.5 -23.5q0 -51 -218 -92t-364 -41q-84 0 -148.5 55t-64.5 108.5z" />
<glyph unicode="{" horiz-adv-x="817" d="M100 133q0 117 71 277.5t71 261.5q0 29 -35 92q-59 39 -59.5 80t22.5 41q12 0 69.5 -35t110.5 -35t91 34t38 82t-46 201.5t-46 264.5q0 147 109.5 248.5t237.5 101.5t197.5 -67.5t69.5 -172.5q0 -55 -22.5 -98t-50.5 -43q-23 0 -23 52t-3 82t-17 61q-27 59 -129.5 59 t-179 -75t-76.5 -193.5t46 -260t46 -202t-60.5 -117.5t-156.5 -57q-14 0 -47 4q18 -47 18 -108.5t-57.5 -202t-57.5 -255t62.5 -167t176.5 -52.5t114 -32.5t-51.5 -53t-120.5 -20.5q-135 0 -223.5 94t-88.5 211z" />
<glyph unicode="|" horiz-adv-x="655" d="M106 -143q0 41 186.5 825t186.5 901q0 35 6.5 48.5t31 13.5t55 -44.5t30.5 -93.5q0 -111 -199 -901q-16 -63 -73 -307q-127 -543 -149.5 -543t-48.5 30t-26 71z" />
<glyph unicode="}" horiz-adv-x="1003" d="M166 -9q0 50 28.5 50t51.5 -25q63 -78 184 -77q131 0 160 208q14 90 22 187q20 246 101 325q-68 31 -111 88.5t-43 122t54.5 139t120 136t119.5 142.5t54 159t-61.5 133t-129 55t-109.5 -25.5t-66 -56.5q-61 -84 -82 -84q-16 0 -43 25t-27 41q0 72 109.5 142.5 t222.5 70.5t213 -91t100 -190.5t-55 -191.5t-123 -156q-178 -172 -178 -249.5t90 -118.5q41 -16 90 -24.5t52 -14.5t3 -11q0 -41 -55 -59q-125 -49 -145 -332q-8 -113 -23.5 -222.5t-75 -183t-167 -73.5t-194.5 55.5t-87 105.5z" />
<glyph unicode="~" horiz-adv-x="1224" d="M172 561q2 92 113 200.5t215 108.5q47 0 90 -36.5t72.5 -81.5t73.5 -83t93 -40q51 2 91.5 33.5t58.5 68.5q53 98 88 98q31 0 31 -55q0 -90 -82 -179t-195 -89q-80 0 -153.5 60.5t-167.5 197.5q-119 -51 -228 -203q-31 -43 -55 -43q-45 0 -45 43z" />
<glyph unicode="&#xa1;" horiz-adv-x="647" d="M162 -358q0 195 85 642t130 447q20 0 35.5 -20.5t15.5 -37t-13.5 -77.5t-33 -162.5t-37.5 -224.5q-47 -291 -47 -594q0 -49 -16 -49q-27 0 -73 26.5t-46 49.5zM395 1192q0 8 13.5 18.5t25.5 10.5q45 0 101.5 -57.5t56.5 -94.5t-27.5 -72.5t-56.5 -35.5t-71 92t-42 139z " />
<glyph unicode="&#xa2;" horiz-adv-x="917" d="M125 334q0 197 158.5 423t334.5 269q66 213 91 213q18 0 32.5 -23.5t14.5 -44t-4 -36t-13 -41.5q-14 -41 -18 -64q74 -14 119 -75.5t45 -98.5t-23.5 -37t-78 46t-93.5 48q-156 -608 -192 -747q94 10 180 50t104 40q29 0 29 -33q0 -39 -123 -105.5t-225 -74.5 q-53 -193 -70 -193q-10 0 -28.5 22t-18.5 37t27 138q-106 20 -177 99t-71 188zM248 330q0 -68 41 -113t110 -53q94 424 176 715q-123 -72 -225 -245t-102 -304z" />
<glyph unicode="&#xa3;" horiz-adv-x="1263" d="M137 289q0 84 58.5 134t154.5 50t209 -98q49 131 105 301q-221 4 -222 35q0 25 22.5 51t43.5 26q74 0 188 -4q117 365 222 469q55 53 100 71.5t122 18.5t131 -56t54 -140q0 -41 -38 -79t-63.5 -38t-25.5 27l12 71q0 98 -94 99q-68 0 -134.5 -91.5t-156.5 -351.5 q274 0 295 -14q8 -4 8 -12q0 -68 -340 -80q-74 -221 -141 -387q51 -51 78 -74q84 -76 147.5 -76t111.5 26t73 58q63 82 100 82q59 0 59.5 -56t-109.5 -138t-208 -82q-143 0 -305 149q-45 -84 -88 -114.5t-113.5 -30.5t-163 85t-92.5 169zM262 287q0 -39 49 -91.5t94.5 -52.5 t104.5 119q-106 102 -154 103q-94 0 -94 -78z" />
<glyph unicode="&#xa4;" horiz-adv-x="1228" d="M227 223.5q0 12.5 5.5 20.5t19.5 23.5t26.5 28.5t83.5 85q-57 82 -57 194q0 160 105 287q-84 164 -84 193.5t32.5 29.5t69.5 -16t40 -45t24 -84q84 57 175 57t162 -49q109 137 154 137q23 0 46.5 -18t23 -36.5t-145.5 -168.5q47 -78 47 -170q0 -193 -131 -327 q14 -20 34 -48t29 -42.5t19 -32.5q20 -29 20.5 -42.5t-12 -21.5t-24.5 -8q-51 0 -150 129q-70 -41 -152.5 -41t-146.5 45q-115 -133 -140.5 -133t-49 20.5t-23.5 33zM414 588.5q0 -101.5 56 -168t130 -66.5q104 0 174 100.5t70 203t-55.5 170t-131.5 67.5 q-104 0 -173.5 -102.5t-69.5 -204z" />
<glyph unicode="&#xa5;" horiz-adv-x="1095" d="M76 399q0 43 323 68q16 63 25 125q-186 -14 -274 -14q-14 0 -30 17t-16 42q0 45 322 70q-70 106 -151.5 300.5t-81.5 286.5q0 33 30.5 33t61 -20.5t39 -39t62.5 -194.5t126 -297q111 147 315.5 349t264.5 202q18 0 37.5 -16.5t19.5 -31.5t-96.5 -110.5t-242.5 -236.5 t-218 -217q38 2 104 2q184 0 185 -37q0 -29 -68 -45.5t-268 -32.5q-4 -33 -25 -129q111 6 187 6q156 0 155.5 -31.5t-71.5 -50.5q-55 -14 -299 -39v-2q-12 -49 -27.5 -108.5t-23 -92t-15.5 -63.5q-18 -57 -33 -57q-23 0 -48.5 27.5t-25.5 72.5t50 211q-123 -12 -248 -12 q-16 0 -30.5 23.5t-14.5 41.5z" />
<glyph unicode="&#xa6;" horiz-adv-x="659" d="M109 -143q0 41 56 263t56 339q0 35 7.5 48t32 13t54 -44t29.5 -105.5t-66.5 -338t-97.5 -276.5q-20 0 -45.5 30t-25.5 71zM369 981q0 41 56 263t56 339q0 35 7.5 48.5t32 13.5t54 -44.5t29.5 -106.5t-65.5 -337.5t-98.5 -275.5q-20 0 -45.5 29.5t-25.5 70.5z" />
<glyph unicode="&#xa7;" horiz-adv-x="878" d="M12 6q0 27 17.5 56.5t31 29.5t22.5 -9t23 -36q57 -119 158 -119q182 0 182 168q0 57 -54 125t-118.5 122t-119 131t-54.5 149q0 115 101.5 217t222.5 149q-102 125 -102 223.5t108.5 189.5t231.5 91q66 0 112.5 -71.5t46.5 -143.5t-35 -72q-41 0 -61 84q-8 31 -30.5 56.5 t-55.5 25.5q-68 0 -130.5 -53t-62.5 -109.5t52.5 -127t115 -131t114.5 -150.5t52 -180.5t-89 -184.5t-218 -123q106 -115 106.5 -228.5t-84.5 -194t-221 -80.5q-96 0 -179 70.5t-83 125.5zM227 618q0 -61 74 -139q29 -29 57.5 -54.5t34.5 -31.5q102 4 181 80t79 155t-82 185 q-27 35 -82 98q-262 -117 -262 -293z" />
<glyph unicode="&#xa8;" horiz-adv-x="491" d="M20 1620q0 33 23 60.5t50.5 27.5t63.5 -68.5t36 -97.5q0 -51 -33 -51q-41 0 -90.5 48t-49.5 81zM299 1620q0 33 22.5 60.5t50 27.5t63.5 -68.5t36 -97.5q0 -51 -33 -51q-41 0 -90 48t-49 81z" />
<glyph unicode="&#xa9;" horiz-adv-x="1449" d="M184 633q0 279 226.5 499t504.5 220q240 0 383.5 -149t143.5 -376q0 -303 -216 -503.5t-534 -200.5q-242 0 -375 143.5t-133 366.5zM297 578.5q0 -166.5 101.5 -268t265.5 -101.5q305 0 482 167t177 472q0 180 -103.5 298t-252.5 118q-231 0 -443 -174 q-100 -82 -163.5 -213.5t-63.5 -298zM496 586q0 94 69.5 225t180 225t210.5 94q33 0 65 -31.5t32 -59t-23 -27.5q-12 0 -36.5 9t-41.5 9q-88 0 -219 -154.5t-131 -304.5q0 -45 37 -76.5t92 -31.5t113.5 23.5t97.5 47t53 23.5q27 0 27 -31q0 -41 -105.5 -104.5t-192.5 -63.5 t-157.5 67t-70.5 161z" />
<glyph unicode="&#xaa;" horiz-adv-x="901" d="M164 1136q0 89 53 207.5t152.5 212t200 93.5t163 -71t62.5 -124q0 -18 -9 -51v-8q0 -31 -24.5 -130.5t-24.5 -223t-32 -123.5q-25 0 -43.5 48t-18.5 109v27q-57 -82 -132 -133t-151.5 -51t-136 64.5t-59.5 153.5zM272 1124q0 -102 94.5 -102t186.5 111.5t147 279.5v6 q0 37 -33.5 80t-82.5 43q-115 0 -213.5 -143.5t-98.5 -274.5z" />
<glyph unicode="&#xab;" horiz-adv-x="1601" d="M102 623q0 27 25 64.5t49 55.5q92 72 334 171.5t328 99.5q39 0 60.5 -16.5t21.5 -28t-2.5 -16.5t-7.5 -9t-8 -7t-12 -6t-14.5 -5t-17.5 -5t-16 -6q-201 -63 -397.5 -147t-196.5 -131q0 -35 288.5 -163t288.5 -155q0 -33 -72.5 -32.5t-361.5 136.5t-289 200zM694 627 q0 27 24.5 62.5t51.5 53.5q86 66 346.5 147t356.5 81q39 0 60 -17.5t21 -31t-10 -21.5t-28.5 -16t-32.5 -13q-483 -129 -592 -188q-51 -27 -51 -49q0 -33 302 -142.5t302 -139t-60 -29.5q-111 0 -400.5 117.5t-289.5 185.5z" />
<glyph unicode="&#xac;" horiz-adv-x="1015" d="M-41 933q0 34 31 34q8 0 76 -4q199 -8 517 -8.5t380 -20.5q90 -31 90 -170q0 -80 -66.5 -223.5t-149.5 -254t-120 -110.5t-37 27q0 18 59 116q180 303 181 459q-1 62 -103 62h-651q-84 0 -145.5 29.5t-61.5 63.5z" />
<glyph unicode="&#xad;" horiz-adv-x="1228" d="M113 582q0 39 226 81t334.5 42t108.5 -41q0 -25 -50 -39.5t-285.5 -60.5t-259 -46t-49 22.5t-25.5 41.5z" />
<glyph unicode="&#xae;" horiz-adv-x="1116" d="M154 1022q0 178 145 319.5t312 141.5t259.5 -95.5t92.5 -242.5q0 -195 -138.5 -324t-343.5 -129q-158 0 -242.5 92.5t-84.5 237.5zM227 993q0 -117 65 -181t171 -64q195 0 309.5 107.5t114.5 303.5q0 115 -66.5 190.5t-161.5 75.5q-158 0 -295 -118.5t-137 -313.5z M393 905.5q0 16.5 37 152.5t43 187q-14 14 -14 30.5t43 31t93 14.5t90 -24.5t40 -71.5q0 -102 -193 -164q0 -8 34 -41t53.5 -49.5t35 -27.5t21.5 -17q33 -33 33 -43q0 -18 -26 -18.5t-97.5 59t-102.5 108.5q-37 -168 -59 -168q-10 0 -20.5 12.5t-10.5 29zM500 1096 q8 4 37.5 17t47 22.5t38.5 23.5q45 33 45 69t-68 36q-37 0 -70 -15v-6q0 -27 -30 -147z" />
<glyph unicode="&#xaf;" horiz-adv-x="735" d="M20 1272q0 43 259.5 43t347.5 -6t88 -35q0 -25 -58.5 -35t-186.5 -19.5t-191 -15.5q-115 -14 -152 -14t-72 28.5t-35 53.5z" />
<glyph unicode="&#xb0;" horiz-adv-x="604" d="M152 1112q0 131 97 252t230 121q88 0 142.5 -63.5t54.5 -177.5t-96.5 -234.5t-231.5 -120.5q-88 0 -142 63.5t-54 159.5zM272 1135.5q0 -70.5 29 -107.5t74 -37q78 0 128 83t50 154.5t-27.5 109.5t-72.5 38q-78 0 -129.5 -85t-51.5 -155.5z" />
<glyph unicode="&#xb1;" horiz-adv-x="1228" d="M162 233.5q0 24.5 28 24.5q233 0 512 19.5t310 19.5q84 0 84 -25q0 -33 -112 -59.5t-267 -40.5q-319 -27 -471 -27q-31 0 -57.5 32t-26.5 56.5zM174 903q0 39 51 39q133 -4 204 -4t181 4q39 256 39 320.5t31 64.5q23 0 61.5 -39t38.5 -68.5t-51 -269.5q57 6 133 17 q160 18 237 18t77 -41q0 -31 -135.5 -60.5t-335.5 -49.5q-16 -82 -36 -195t-30 -156q-18 -74 -38.5 -73.5t-39 29t-18.5 55t49 329.5q-160 -12 -311 -12q-39 0 -73 30.5t-34 61.5z" />
<glyph unicode="&#xb2;" horiz-adv-x="600" d="M113 826.5q0 27.5 59 76.5t130 102.5t130.5 133.5t59.5 155q0 96 -76 97q-47 0 -93.5 -40t-56.5 -40t-33.5 15t-23.5 32q0 35 64.5 80t138 45t125 -52.5t51.5 -130.5q0 -123 -92.5 -231t-264.5 -227q272 41 291 41q59 0 60 -31q0 -35 -149.5 -67.5t-204 -32.5t-85 23.5 t-30.5 51z" />
<glyph unicode="&#xb3;" horiz-adv-x="649" d="M127 793q0 29 199 63q74 14 136 48t62 81q0 37 -131 66.5t-131 52.5v2q0 39 144 98q53 23 97 61t44 84t-51.5 46t-109.5 -33t-74.5 -33t-36 17.5t-19.5 35.5q0 35 79 69t146.5 34t113.5 -46t46 -105.5t-59.5 -113t-143.5 -94.5q88 -14 142.5 -50t54.5 -89 q0 -96 -129 -164.5t-254 -68.5t-125 39z" />
<glyph unicode="&#xb4;" horiz-adv-x="395" d="M20 1393.5q0 15.5 4.5 26t17.5 26.5t24 29q35 37 68.5 70.5t57 60t37 41t29.5 30.5q33 31 55.5 31t42 -29.5t19.5 -48t-2 -27t-9.5 -18.5t-14.5 -17t-22.5 -19.5t-27.5 -20.5q-41 -35 -65.5 -53.5t-42 -33t-26.5 -21.5t-22.5 -17t-19.5 -15.5t-15.5 -11.5t-14.5 -8 t-11 -4q-12 -6 -24.5 -6t-25 10t-12.5 25.5z" />
<glyph unicode="&#xb5;" horiz-adv-x="1327" d="M51 -362.5q0 16.5 31 93t103.5 255t130 331t119 343t95 279.5t54 89t47 -15.5t26.5 -29.5q0 -33 -45 -154q-135 -362 -135 -573q0 -47 30 -79t73 -32q82 0 176 102.5t166.5 243t124 271.5t61.5 186.5t16 67.5t28 12t47.5 -37t25.5 -69.5t-224 -800.5q-25 -86 -59 -86 q-43 0 -43 64.5t62 267.5q-190 -332 -390 -332q-74 0 -119.5 45t-50.5 113q-31 -66 -105.5 -242t-119.5 -268.5t-66.5 -92.5t-40 15.5t-18.5 32z" />
<glyph unicode="&#xb6;" horiz-adv-x="989" d="M129 946q0 145 100.5 327.5t237.5 254.5q49 27 173 46t184.5 19t86 -10t53 -48t27.5 -79q-2 -387 -213 -1180q-63 -242 -96 -241q-18 0 -42 21.5t-24 43t58.5 248.5t124 561t80.5 598q-25 -8 -185 -34q2 -6 2 -21q-2 -387 -211 -1176q-63 -242 -98 -241q-18 0 -41.5 22.5 t-23.5 42t34 150.5q115 440 140 579q-96 -72 -177 -71.5t-135.5 61t-54.5 127.5z" />
<glyph unicode="&#xb7;" horiz-adv-x="485" d="M139 667q0 38 28 72.5t57.5 34.5t72.5 -92t43 -139q0 -8 -14.5 -19.5t-26.5 -11.5q-45 0 -102.5 58.5t-57.5 96.5z" />
<glyph unicode="&#xb8;" horiz-adv-x="460" d="M20 -406q0 25 57.5 35.5t130.5 31t99 65.5q-8 20 -97 37.5t-89 40t34.5 97t47.5 111.5q12 43 56 43t44 -48t-61 -154h16q66 0 124 -33t58 -76q0 -63 -67 -109q-115 -76 -291 -75q-61 0 -62 34z" />
<glyph unicode="&#xb9;" horiz-adv-x="307" d="M170 806q0 15 39 253t39 385q0 43 20.5 43t48 -26.5t27.5 -45.5q0 -182 -74 -563q-23 -104 -49 -104q-16 0 -33.5 21.5t-17.5 36.5z" />
<glyph unicode="&#xba;" d="M195 1252.5q0 136.5 104 266.5t258 130q109 0 170 -97.5t61 -232.5t-107.5 -264t-270.5 -129q-94 0 -154.5 95t-60.5 231.5zM305 1219q0 -66 27.5 -121.5t68.5 -81.5q137 18 206 103t69 212q0 168 -117 228q-129 -31 -191.5 -125t-62.5 -215z" />
<glyph unicode="&#xbb;" horiz-adv-x="1705" d="M166 326q0 31 312.5 167t312.5 169q0 47 -149.5 107t-265.5 87.5t-116 50.5q0 14 23.5 39t44.5 25q72 -2 213 -49.5t266 -126t125 -148.5q0 -45 -152.5 -130t-328 -149.5t-230.5 -64.5t-55 23zM752 303q0 31 310 180.5t310 169.5q0 49 -156.5 135t-260 115t-103.5 49 q0 14 21.5 38t41.5 24q74 -2 214.5 -61.5t259 -149.5t118.5 -162q0 -33 -24 -61q-68 -61 -332 -179t-356 -118q-43 0 -43 20z" />
<glyph unicode="&#xbc;" horiz-adv-x="1558" d="M141 33q0 45 206 348t486.5 695t286.5 401.5t9.5 13.5t7.5 9t6 7q8 4 19.5 4t29.5 -36.5t18 -74.5t-91 -165t-238.5 -314.5t-216.5 -291.5q-313 -467 -384 -565.5t-94 -98.5q-10 0 -27.5 25.5t-17.5 42.5zM256 650.5q0 15.5 50 317.5t50 496q0 41 25 41t56.5 -27.5 t31.5 -50.5q-2 -154 -25.5 -296t-33 -200.5t-14.5 -93t-13 -79.5t-14.5 -72t-12.5 -51q-14 -49 -28 -49q-21 2 -46.5 25.5t-25.5 39zM801 448.5q0 79.5 81 217t170 240t111.5 102.5t41 -17.5t18.5 -36t-80 -110.5q-233 -279 -234 -391q0 -82 74 -82q68 0 154 33.5t100 37.5 q12 82 12 185q0 49 41 49q16 0 45 -32t29 -58q0 -147 -71.5 -386t-121.5 -239q-18 0 -29.5 17.5t-11.5 37t13 60.5q57 174 74 250q-133 -57 -224.5 -57.5t-141.5 50t-50 130z" />
<glyph unicode="&#xbd;" horiz-adv-x="1531" d="M90 33q0 45 206 348t486.5 695t286.5 401.5t9 13.5t7.5 9t8.5 7q4 4 16 4t30.5 -36.5t18.5 -74.5t-91 -165t-238.5 -314.5t-217.5 -291.5q-313 -467 -383.5 -565.5t-93.5 -98.5q-10 0 -27.5 25.5t-17.5 42.5zM205 657.5q0 22.5 24 155.5q76 389 76 651q0 41 24.5 41 t56.5 -27.5t32 -50.5q-6 -184 -45 -401q-57 -373 -72.5 -406.5t-24.5 -33.5q-20 2 -45.5 25.5t-25.5 46zM723 55.5q0 30.5 50 73.5t122 97.5t142.5 119t120.5 148.5t50 153.5t-26.5 105t-70.5 35.5t-84 -25.5t-67.5 -50t-44 -24.5t-42 14.5t-25.5 34.5q0 43 86 100.5 t173 57.5t151.5 -66.5t64.5 -160.5q0 -164 -126 -306.5t-363 -300.5q43 6 141 21q241 39 270 39q72 0 72 -31q0 -39 -191.5 -81t-285.5 -42q-41 0 -79 29t-38 59.5z" />
<glyph unicode="&#xbe;" horiz-adv-x="1697" d="M170 731q0 16 80 32.5t176 33t176 64.5t80 118q0 43 -85 65.5t-170 37t-85 36.5q0 8 6 24.5t64.5 48.5t124 61.5t119 79.5t53.5 106q0 70 -82 69q-57 0 -132 -42t-95.5 -42t-42 19.5t-21.5 40.5q0 39 99.5 82t183 43t142 -57.5t58.5 -129t-85 -146.5t-195 -124 q121 -16 196.5 -62t75.5 -114q0 -117 -164 -204t-320.5 -87t-156.5 47zM338 33q0 45 206 348t486.5 695t286.5 401.5t9 13.5t7 9t6 7q8 4 19.5 4t30 -36.5t18.5 -74.5t-91 -165t-238.5 -314.5t-217.5 -291.5q-313 -467 -383.5 -565.5t-93.5 -98.5q-10 0 -27.5 25.5 t-17.5 42.5zM995 448.5q0 79.5 81 217t170 240t112.5 102.5t41 -17.5t17.5 -36t-78 -110.5q-236 -283 -235 -391q0 -82 74 -82q70 0 155.5 33.5t100.5 37.5q12 82 12 185q0 49 39 49q18 0 46 -32t28 -58q0 -145 -73 -385t-120 -240q-18 0 -29.5 17.5t-11.5 37t14 60.5 q53 166 74 252q-129 -59 -223 -59.5t-144.5 50t-50.5 130z" />
<glyph unicode="&#xbf;" horiz-adv-x="759" d="M-2 -82q0 78 58.5 172t131.5 168q203 207 246 312.5t58.5 132t33.5 26.5q41 0 41 -82t-45 -158.5t-109.5 -147.5t-129.5 -140q-156 -166 -156 -289q0 -78 55.5 -129t131 -51t133 47t57.5 117q0 23 -8.5 40t-8.5 30.5t21.5 22.5t41 9t47.5 -40t28 -71q0 -108 -94.5 -192 t-221.5 -84t-219 84t-92 223zM504 1192q0 8 13.5 18.5t25.5 10.5q45 0 101 -57.5t56 -95.5t-26.5 -72.5t-56 -34.5t-71.5 92t-42 139z" />
<glyph unicode="&#xc0;" horiz-adv-x="1220" d="M96 133q0 14 146 352q-47 -10 -62 -10q-82 0 -82 51q0 33 201 95q238 569 295 685.5t83 144.5t75 28q57 0 105 -203t81 -496q94 18 144.5 18.5t50.5 -42.5q0 -27 -185 -80q27 -260 27 -450.5t-49 -190.5q-59 0 -68 162q-12 240 -31 446q-338 -90 -444 -119 q-174 -428 -194.5 -458.5t-26.5 -30.5q-25 0 -45.5 29.5t-20.5 68.5zM440 664q229 61 377 92q-37 336 -92 565q-150 -327 -285 -657zM549 1859.5q0 18.5 22.5 47t42 28.5t28.5 -5t22.5 -17t24.5 -25.5t32.5 -37t38 -42t34 -37t27.5 -28.5t22.5 -23.5t18.5 -20.5t12.5 -15.5 t9.5 -13.5t5 -11q6 -10 6 -23.5t-13.5 -26t-27.5 -12.5t-34.5 13.5t-59.5 45.5t-56.5 45t-40 29.5t-34 25.5t-27.5 21.5t-23.5 20.5t-15.5 17.5t-11 17.5t-3 26.5z" />
<glyph unicode="&#xc1;" horiz-adv-x="1220" d="M96 133q0 14 146 352q-47 -10 -62 -10q-82 0 -82 51q0 33 201 95q238 569 295 685.5t83 144.5t75 28q57 0 105 -203t81 -496q94 18 144.5 18.5t50.5 -42.5q0 -27 -185 -80q27 -260 27 -450.5t-49 -190.5q-59 0 -68 162q-12 240 -31 446q-338 -90 -444 -119 q-174 -428 -194.5 -458.5t-26.5 -30.5q-25 0 -45.5 29.5t-20.5 68.5zM440 664q229 61 377 92q-37 336 -92 565q-150 -327 -285 -657zM764 1633.5q0 15.5 4 25.5t17.5 26.5t25.5 28.5q33 37 66.5 71t57 60.5t37 41t32.5 30.5q31 31 53 31t41.5 -30t19.5 -48.5t-2 -26.5 t-9 -18t-14.5 -17.5t-22.5 -19.5t-26 -23q-43 -33 -67.5 -51t-41.5 -32.5t-26.5 -21.5t-23 -17.5t-19.5 -15.5t-15 -11t-14.5 -8t-12.5 -5.5t-11 -4.5t-14.5 -1t-22.5 10.5t-12 26z" />
<glyph unicode="&#xc2;" horiz-adv-x="1220" d="M96 133q0 14 146 352q-47 -10 -62 -10q-82 0 -82 51q0 33 201 95q238 569 295 685.5t83 144.5t75 28q57 0 105 -203t81 -496q94 18 144.5 18.5t50.5 -42.5q0 -27 -185 -80q27 -260 27 -450.5t-49 -190.5q-59 0 -68 162q-12 240 -31 446q-338 -90 -444 -119 q-174 -428 -194.5 -458.5t-26.5 -30.5q-25 0 -45.5 29.5t-20.5 68.5zM440 664q229 61 377 92q-37 336 -92 565q-150 -327 -285 -657zM469 1669q0 31 30.5 62.5t81 60.5t83 49.5t53 32.5t44 24.5t41 18.5t28 6t18.5 -2t15 -4t15.5 -8t13.5 -9.5t14 -13.5t14 -14 q29 -37 34 -43q137 -164 137.5 -200t-38.5 -36t-70 29t-84 104.5t-63 90.5q-57 -31 -126 -83.5t-115 -86t-69.5 -33.5t-40 12t-16.5 43z" />
<glyph unicode="&#xc3;" horiz-adv-x="1220" d="M96 133q0 14 146 352q-47 -10 -62 -10q-82 0 -82 51q0 33 201 95q238 569 295 685.5t83 144.5t75 28q57 0 105 -203t81 -496q94 18 144.5 18.5t50.5 -42.5q0 -27 -185 -80q27 -260 27 -450.5t-49 -190.5q-59 0 -68 162q-12 240 -31 446q-338 -90 -444 -119 q-174 -428 -194.5 -458.5t-26.5 -30.5q-25 0 -45.5 29.5t-20.5 68.5zM440 664q229 61 377 92q-37 336 -92 565q-150 -327 -285 -657zM518 1647q0 66 75 139.5t148 73.5q78 0 123 -76q47 -76 88 -80q27 2 49.5 22.5t34.5 42.5q33 63 68 63.5t35 -56t-56.5 -119t-134.5 -62.5 q-98 0 -213 162q-43 -20 -75.5 -59t-54.5 -66.5t-42 -27.5q-45 0 -45 43z" />
<glyph unicode="&#xc4;" horiz-adv-x="1220" d="M96 133q0 14 146 352q-47 -10 -62 -10q-82 0 -82 51q0 33 201 95q238 569 295 685.5t83 144.5t75 28q57 0 105 -203t81 -496q94 18 144.5 18.5t50.5 -42.5q0 -27 -185 -80q27 -260 27 -450.5t-49 -190.5q-59 0 -68 162q-12 240 -31 446q-338 -90 -444 -119 q-174 -428 -194.5 -458.5t-26.5 -30.5q-25 0 -45.5 29.5t-20.5 68.5zM440 664q229 61 377 92q-37 336 -92 565q-150 -327 -285 -657zM582 1765.5q0 32.5 22.5 60t50 27.5t63.5 -68.5t36 -96.5q0 -52 -33 -52q-41 0 -90 48.5t-49 81zM860 1765.5q0 32.5 22.5 60t50.5 27.5 t63.5 -68.5t35.5 -96.5q0 -52 -33 -52q-41 0 -90 48.5t-49 81z" />
<glyph unicode="&#xc5;" horiz-adv-x="1220" d="M96 133q0 14 146 352q-47 -10 -62 -10q-82 0 -82 51q0 33 201 95q238 569 295 685.5t83 144.5t75 28q57 0 105 -203t81 -496q94 18 144.5 18.5t50.5 -42.5q0 -27 -185 -80q27 -260 27 -450.5t-49 -190.5q-59 0 -68 162q-12 240 -31 446q-338 -90 -444 -119 q-174 -428 -194.5 -458.5t-26.5 -30.5q-25 0 -45.5 29.5t-20.5 68.5zM440 664q229 61 377 92q-37 336 -92 565q-150 -327 -285 -657zM672 1727.5q0 70.5 53 138t120.5 67.5t107.5 -46t40 -116.5t-53 -138t-120.5 -67.5t-107.5 46t-40 116.5zM766 1738q0 -40 15.5 -62.5 t42 -22.5t50 30.5t23.5 71.5t-15.5 63.5t-42 22.5t-50 -31.5t-23.5 -71.5z" />
<glyph unicode="&#xc6;" horiz-adv-x="1626" d="M20 102q0 18 34 96t101.5 233t183.5 441.5t179 421.5q33 68 166 91.5t364.5 23.5t352.5 -5t152.5 -14.5t31.5 -25.5q0 -53 -411 -53h-107q2 -12 2 -39q0 -150 -104 -510q303 35 407 35q70 0 70 -49q0 -23 -112.5 -41.5t-395.5 -51.5q-117 -395 -117 -434t19.5 -56.5 t48.5 -17.5q260 0 542 82q96 27 111 27q25 0 25 -37q0 -55 -226.5 -124.5t-416.5 -69.5q-94 0 -162 48t-68 113q0 98 111 455q-242 -31 -341.5 -47t-115.5 -16h-6q-27 -63 -69 -165t-65.5 -157t-51.5 -117q-51 -115 -76 -114q-55 0 -56 77zM379 676q131 28 455 69 q115 369 114 564q-274 -6 -303 -39q-20 -20 -266 -594z" />
<glyph unicode="&#xc7;" horiz-adv-x="1206" d="M166 432q0 133 78 312.5t194.5 332t269 257t289.5 104.5q51 0 100.5 -49.5t49.5 -81t-11.5 -31.5t-56.5 18.5t-86 18.5q-80 0 -199.5 -83t-229 -208t-188.5 -290t-79 -294t79 -192.5t193.5 -63.5t226 46t181.5 91.5t84 45.5t22.5 -9.5t8.5 -19.5q0 -35 -86 -102.5 t-217.5 -125t-233.5 -57.5h-8q-14 -55 -55 -125h16q66 0 124 -32.5t58 -75.5q0 -63 -67 -109q-115 -76 -291 -76q-61 0 -62 35q0 25 57.5 35t130 30.5t99.5 65.5q-8 20 -97 38t-89 40q0 20 31.5 89t43.5 102q-119 35 -199.5 133t-80.5 231z" />
<glyph unicode="&#xc8;" horiz-adv-x="1236" d="M170 186q0 94 64.5 300t129 437.5t64.5 389.5q0 41 7 48t7 9q55 66 433 66t378 -39q0 -29 -72.5 -40t-179.5 -20q-133 -10 -154.5 -11t-63.5 -4t-133 -15.5t-101 -14.5v-20q0 -139 -92 -469l63 -2q106 0 222 10t184.5 10t68.5 -18q0 -106 -549 -107q-14 0 -20 2 q-129 -406 -129 -485q0 -31 19.5 -48.5t48.5 -17.5q260 0 542 82q96 27 111 27q25 0 24 -37q0 -55 -226 -124.5t-417 -69.5q-94 0 -161.5 48t-67.5 113zM655 1859.5q0 18.5 22.5 47t42 28.5t29 -5t22.5 -17t24.5 -25.5t33 -37t38 -42t34 -37t27.5 -28.5t22.5 -23.5 t18.5 -20.5t12 -15.5t9 -13.5t5 -11q6 -10 6 -23.5t-13 -26t-27.5 -12.5t-35 13.5t-59.5 45.5t-56 45t-39.5 29.5t-34 25.5t-28 21.5t-23.5 20.5t-15 17.5t-11.5 17.5t-3.5 26.5z" />
<glyph unicode="&#xc9;" horiz-adv-x="1236" d="M170 186q0 94 64.5 300t129 437.5t64.5 389.5q0 41 7 48t7 9q55 66 433 66t378 -39q0 -29 -72.5 -40t-179.5 -20q-133 -10 -154.5 -11t-63.5 -4t-133 -15.5t-101 -14.5v-20q0 -139 -92 -469l63 -2q106 0 222 10t184.5 10t68.5 -18q0 -106 -549 -107q-14 0 -20 2 q-129 -406 -129 -485q0 -31 19.5 -48.5t48.5 -17.5q260 0 542 82q96 27 111 27q25 0 24 -37q0 -55 -226 -124.5t-417 -69.5q-94 0 -161.5 48t-67.5 113zM870 1633.5q0 15.5 4.5 25.5t17.5 26.5t26 28.5q33 37 66.5 71t57 60.5t37 41t31.5 30.5q31 31 53.5 31t42 -30 t19.5 -48.5t-2 -26.5t-9.5 -18t-14.5 -17.5t-22.5 -19.5t-25.5 -23q-43 -33 -67.5 -51t-42 -32.5t-26.5 -21.5l-22.5 -17.5t-19.5 -15.5t-15.5 -11t-14.5 -8t-12 -5.5t-11.5 -4.5t-14.5 -1t-22.5 10.5t-12.5 26z" />
<glyph unicode="&#xca;" horiz-adv-x="1236" d="M170 186q0 94 64.5 300t129 437.5t64.5 389.5q0 41 7 48t7 9q55 66 433 66t378 -39q0 -29 -72.5 -40t-179.5 -20q-133 -10 -154.5 -11t-63.5 -4t-133 -15.5t-101 -14.5v-20q0 -139 -92 -469l63 -2q106 0 222 10t184.5 10t68.5 -18q0 -106 -549 -107q-14 0 -20 2 q-129 -406 -129 -485q0 -31 19.5 -48.5t48.5 -17.5q260 0 542 82q96 27 111 27q25 0 24 -37q0 -55 -226 -124.5t-417 -69.5q-94 0 -161.5 48t-67.5 113zM575 1669q0 31 31 62.5t81 60.5t83 49.5t53.5 32.5t44 24.5t41 18.5t27.5 6t18.5 -2t15.5 -4t15 -8t13.5 -9.5 t14.5 -13.5t13 -14q29 -37 35 -43q137 -164 137 -200t-39 -36t-69.5 29t-84 104.5t-63.5 90.5q-57 -31 -125.5 -83.5t-115 -86t-70 -33.5t-40 12t-16.5 43z" />
<glyph unicode="&#xcb;" horiz-adv-x="1236" d="M170 186q0 94 64.5 300t129 437.5t64.5 389.5q0 41 7 48t7 9q55 66 433 66t378 -39q0 -29 -72.5 -40t-179.5 -20q-133 -10 -154.5 -11t-63.5 -4t-133 -15.5t-101 -14.5v-20q0 -139 -92 -469l63 -2q106 0 222 10t184.5 10t68.5 -18q0 -106 -549 -107q-14 0 -20 2 q-129 -406 -129 -485q0 -31 19.5 -48.5t48.5 -17.5q260 0 542 82q96 27 111 27q25 0 24 -37q0 -55 -226 -124.5t-417 -69.5q-94 0 -161.5 48t-67.5 113zM688 1765.5q0 32.5 22.5 60t50 27.5t63.5 -68.5t36 -96.5q0 -52 -33 -52q-41 0 -90 48.5t-49 81zM967 1765.5 q0 32.5 22.5 60t50 27.5t63.5 -68.5t36 -96.5q0 -52 -33 -52q-41 0 -90 48.5t-49 81z" />
<glyph unicode="&#xcc;" horiz-adv-x="636" d="M158 147q0 43 134 573.5t134 661.5q0 37 5 48.5t29.5 11.5t54.5 -45t30 -97q0 -137 -152 -694q-16 -57 -40.5 -154.5t-41 -156.5t-35.5 -123q-37 -127 -49 -127q-20 0 -44.5 29.5t-24.5 72.5zM307 1859.5q0 18.5 22.5 47t42 28.5t29 -5t22.5 -17t24.5 -25.5t33 -37 t38 -42t33.5 -37t27.5 -28.5t22.5 -23.5t18.5 -20.5t12.5 -15.5t9 -13.5t5 -11q6 -10 6 -23.5t-13 -26t-27.5 -12.5t-35 13.5t-59.5 45.5t-56.5 45t-40 29.5t-33.5 25.5t-27.5 21.5t-23.5 20.5t-15.5 17.5t-11.5 17.5t-3 26.5z" />
<glyph unicode="&#xcd;" horiz-adv-x="636" d="M158 147q0 43 134 573.5t134 661.5q0 37 5 48.5t29.5 11.5t54.5 -45t30 -97q0 -137 -152 -694q-16 -57 -40.5 -154.5t-41 -156.5t-35.5 -123q-37 -127 -49 -127q-20 0 -44.5 29.5t-24.5 72.5zM522 1633.5q0 15.5 4 25.5t17.5 26.5t25.5 28.5q33 37 67 71t57.5 60.5 t36.5 41t32 30.5q31 31 53.5 31t42 -30t19.5 -48.5t-2.5 -26.5t-9.5 -18t-14 -17.5t-22.5 -19.5t-25.5 -23q-43 -33 -67.5 -51t-42 -32.5t-27 -21.5t-22.5 -17.5t-19.5 -15.5t-15.5 -11t-14 -8t-13 -6q-10 -4 -22.5 -4.5t-25 10t-12.5 26z" />
<glyph unicode="&#xce;" horiz-adv-x="636" d="M158 147q0 43 134 573.5t134 661.5q0 37 5 48.5t29.5 11.5t54.5 -45t30 -97q0 -137 -152 -694q-16 -57 -40.5 -154.5t-41 -156.5t-35.5 -123q-37 -127 -49 -127q-20 0 -44.5 29.5t-24.5 72.5zM227 1669q0 31 31 62.5t81 60.5t83 49.5t53.5 32.5t44 24.5t41 18.5t27.5 6 t18 -2t15.5 -4t15.5 -8t13 -9.5t14.5 -13.5t13.5 -14q29 -37 35 -43q137 -164 137 -200t-39 -36t-69.5 29t-84 104.5t-63.5 90.5q-57 -31 -126 -83.5t-115 -86t-69.5 -33.5t-40 12t-16.5 43z" />
<glyph unicode="&#xcf;" horiz-adv-x="636" d="M158 147q0 43 134 573.5t134 661.5q0 37 5 48.5t29.5 11.5t54.5 -45t30 -97q0 -137 -152 -694q-16 -57 -40.5 -154.5t-41 -156.5t-35.5 -123q-37 -127 -49 -127q-20 0 -44.5 29.5t-24.5 72.5zM340 1765.5q0 32.5 22.5 60t50 27.5t63.5 -68.5t36 -96.5q0 -51 -33 -52 q-41 0 -90 48.5t-49 81zM618 1765.5q0 32.5 23 60t50.5 27.5t63.5 -68.5t36 -96.5q0 -51 -33 -52q-41 0 -90.5 48.5t-49.5 81z" />
<glyph unicode="&#xd0;" horiz-adv-x="1234" d="M27 578q0 49 286 86q115 412 115 538q0 37 2 47q-59 16 -90 43t-31 54q0 36 41 36q178 0 380 -97t346.5 -268t144.5 -353q0 -129 -166 -297t-385 -285t-367 -117q-41 0 -77 53.5t-36 125t95 411.5q-102 -12 -140 -12q-119 0 -118 35zM313 92q113 4 255.5 74t254 162 t189.5 187.5t78 152.5q0 164 -173.5 333.5t-398.5 229.5q27 -43 27 -118t-101 -437q68 6 104 6t68.5 -12.5t32.5 -32.5q0 -33 -233 -66l-31 -112q-49 -166 -72 -367z" />
<glyph unicode="&#xd1;" horiz-adv-x="1437" d="M131 147.5q0 47.5 141.5 581t141.5 662.5q0 37 5 48t23.5 11t50 -36t46 -97.5t185.5 -479t282 -657.5q88 223 139 502t59 414t8.5 244.5t47.5 109.5q25 0 54 -39t29 -76q0 -190 -48 -493t-130 -553t-161 -250q-53 0 -94.5 81t-206 476t-209.5 522q-88 -330 -170 -648 t-98.5 -374.5t-28.5 -56.5q-16 0 -41 30.5t-25 78zM610 1647q0 66 75 139.5t149 73.5q78 0 124 -76q45 -76 86 -80q27 2 49.5 22.5t34.5 42.5q33 63 68 63.5t35 -56t-56.5 -119t-134.5 -62.5q-98 0 -213 162q-43 -20 -75.5 -59t-54 -66.5t-42.5 -27.5q-45 0 -45 43z" />
<glyph unicode="&#xd2;" horiz-adv-x="1249" d="M135 422q0 244 111.5 487.5t272.5 392t310.5 148.5t258 -149.5t108.5 -339t-109.5 -405.5t-288 -366.5t-352.5 -150.5q-127 0 -219 126t-92 257zM258 450.5q0 -139.5 63.5 -218t143.5 -78.5q111 0 253 130t243.5 316t101.5 350t-74 270.5t-151.5 106.5t-175 -81 t-187.5 -203.5t-153.5 -287.5t-63.5 -304.5zM733 1859.5q0 18.5 22.5 47t42 28.5t29 -5t22.5 -17t24.5 -25.5t33 -37t38 -42t33.5 -37t27.5 -28.5t22.5 -23.5t18.5 -20.5t12.5 -15.5t9 -13.5t5 -11q6 -10 6 -23.5t-13 -26t-27.5 -12.5t-35 13.5t-59.5 45.5t-56.5 45 t-40 29.5t-33.5 25.5t-27.5 21.5t-23.5 20.5t-15.5 17.5t-11.5 17.5t-3 26.5z" />
<glyph unicode="&#xd3;" horiz-adv-x="1249" d="M135 422q0 244 111.5 487.5t272.5 392t310.5 148.5t258 -149.5t108.5 -339t-109.5 -405.5t-288 -366.5t-352.5 -150.5q-127 0 -219 126t-92 257zM258 450.5q0 -139.5 63.5 -218t143.5 -78.5q111 0 253 130t243.5 316t101.5 350t-74 270.5t-151.5 106.5t-175 -81 t-187.5 -203.5t-153.5 -287.5t-63.5 -304.5zM948 1633.5q0 15.5 4 25.5t17.5 26.5t25.5 28.5q33 37 67 71t57.5 60.5t36.5 41t32 30.5q31 31 53.5 31t42 -30t19.5 -48.5t-2.5 -26.5t-9.5 -18t-14 -17.5t-22.5 -19.5t-25.5 -23q-43 -33 -67.5 -51t-42 -32.5t-27 -21.5 t-22.5 -17.5t-19.5 -15.5t-15.5 -11t-14 -8t-13 -6q-10 -4 -22.5 -4.5t-25 10t-12.5 26z" />
<glyph unicode="&#xd4;" horiz-adv-x="1249" d="M135 422q0 244 111.5 487.5t272.5 392t310.5 148.5t258 -149.5t108.5 -339t-109.5 -405.5t-288 -366.5t-352.5 -150.5q-127 0 -219 126t-92 257zM258 450.5q0 -139.5 63.5 -218t143.5 -78.5q111 0 253 130t243.5 316t101.5 350t-74 270.5t-151.5 106.5t-175 -81 t-187.5 -203.5t-153.5 -287.5t-63.5 -304.5zM653 1669q0 31 31 62.5t81 60.5t83 49.5t53.5 32.5t44 24.5t41 18.5t27.5 6t18 -2t15.5 -4t15.5 -8t13 -9.5t14.5 -13.5t13.5 -14q29 -37 35 -43q137 -164 137 -200t-39 -36t-69.5 29t-84 104.5t-63.5 90.5q-57 -31 -126 -83.5 t-115 -86t-69.5 -33.5t-40 12t-16.5 43z" />
<glyph unicode="&#xd5;" horiz-adv-x="1249" d="M135 422q0 244 111.5 487.5t272.5 392t310.5 148.5t258 -149.5t108.5 -339t-109.5 -405.5t-288 -366.5t-352.5 -150.5q-127 0 -219 126t-92 257zM258 450.5q0 -139.5 63.5 -218t143.5 -78.5q111 0 253 130t243.5 316t101.5 350t-74 270.5t-151.5 106.5t-175 -81 t-187.5 -203.5t-153.5 -287.5t-63.5 -304.5zM702 1647q0 66 75 139.5t149 73.5q78 0 123 -76q47 -76 88 -80q27 2 49 22.5t35 42.5q33 63 67.5 63.5t34.5 -56t-56.5 -119t-133.5 -62.5q-98 0 -213 162q-43 -20 -76 -59t-54.5 -66.5t-41.5 -27.5q-46 0 -46 43z" />
<glyph unicode="&#xd6;" horiz-adv-x="1249" d="M135 422q0 244 111.5 487.5t272.5 392t310.5 148.5t258 -149.5t108.5 -339t-109.5 -405.5t-288 -366.5t-352.5 -150.5q-127 0 -219 126t-92 257zM258 450.5q0 -139.5 63.5 -218t143.5 -78.5q111 0 253 130t243.5 316t101.5 350t-74 270.5t-151.5 106.5t-175 -81 t-187.5 -203.5t-153.5 -287.5t-63.5 -304.5zM766 1765.5q0 32.5 22.5 60t50 27.5t63.5 -68.5t36 -96.5q0 -51 -33 -52q-41 0 -90 48.5t-49 81zM1044 1765.5q0 32.5 23 60t50.5 27.5t63.5 -68.5t36 -96.5q0 -51 -33 -52q-41 0 -90.5 48.5t-49.5 81z" />
<glyph unicode="&#xd7;" horiz-adv-x="1058" d="M109 341q0 17 45 55t140 116t175 154q-102 137 -176 255.5t-74 152.5t37 34t76 -17.5t39 -43.5q0 -57 182 -297q256 260 314.5 308t88 49t56 -16.5t26.5 -33t-66.5 -77.5t-180.5 -165l-170 -151q31 -37 79 -97.5t76.5 -95.5t59.5 -74q57 -74 57 -86q0 -27 -43 -26 q-82 0 -315 295q-307 -295 -349 -295q-25 0 -51 19.5t-26 36.5z" />
<glyph unicode="&#xd8;" horiz-adv-x="1249" d="M78 86q0 29 98 164q-41 86 -41 172q0 244 111.5 487.5t272.5 392t301.5 148.5t244.5 -121q104 111 143 111q35 0 35 -43t-88 -142l-22 -26q63 -123 63 -290t-109.5 -383t-287.5 -366.5t-353 -150.5q-115 0 -204 106q-90 -111 -111 -110q-53 0 -53 51zM258 440 q0 -45 8 -78q78 96 212 260t224 277q176 219 277 336q-68 92 -143.5 92t-173 -81t-187.5 -203.5t-153.5 -287.5t-63.5 -315zM315 240q63 -86 161.5 -86t241 130t244 316t101.5 336q0 98 -27 184q-328 -379 -721 -880z" />
<glyph unicode="&#xd9;" horiz-adv-x="1226" d="M203 391.5q0 149.5 88 496.5t88 494q0 37 5 48.5t27.5 11.5t56.5 -45t34 -117t-89 -412t-89 -458.5t51 -196.5t130 -78t166 81t163.5 213t128 323.5t51.5 390.5q0 70 -7.5 156.5t-7.5 108.5t6.5 28t22.5 6q37 0 76 -50.5t39 -146.5q0 -537 -196.5 -881t-450.5 -344 q-127 0 -210 111t-83 260.5zM526 1859.5q0 18.5 22.5 47t42 28.5t29 -5t22.5 -17t24.5 -25.5t33 -37t38 -42t33.5 -37t27.5 -28.5t23 -23.5t18.5 -20.5t12 -15.5t9 -13.5t7 -11q4 -10 4 -23.5t-13 -26t-27.5 -12.5t-35 13.5t-59.5 45.5t-56 45t-40 29.5t-34 25.5t-27.5 21.5 t-23.5 20.5t-15.5 17.5t-11.5 17.5t-3 26.5z" />
<glyph unicode="&#xda;" horiz-adv-x="1226" d="M203 391.5q0 149.5 88 496.5t88 494q0 37 5 48.5t27.5 11.5t56.5 -45t34 -117t-89 -412t-89 -458.5t51 -196.5t130 -78t166 81t163.5 213t128 323.5t51.5 390.5q0 70 -7.5 156.5t-7.5 108.5t6.5 28t22.5 6q37 0 76 -50.5t39 -146.5q0 -537 -196.5 -881t-450.5 -344 q-127 0 -210 111t-83 260.5zM741 1633.5q0 15.5 4.5 25.5t17.5 26.5t23 28.5q35 37 69 71t57.5 60.5t37 41t29.5 30.5q33 31 55.5 31t42 -30t19.5 -48.5t-2 -26.5t-9.5 -18t-14.5 -17.5t-22.5 -19.5t-27.5 -23q-41 -33 -65.5 -51t-42 -32.5t-26.5 -21.5l-22.5 -17.5 t-19.5 -15.5t-15.5 -11t-14.5 -8t-11 -6q-12 -4 -24.5 -4.5t-25 10t-12.5 26z" />
<glyph unicode="&#xdb;" horiz-adv-x="1226" d="M203 391.5q0 149.5 88 496.5t88 494q0 37 5 48.5t27.5 11.5t56.5 -45t34 -117t-89 -412t-89 -458.5t51 -196.5t130 -78t166 81t163.5 213t128 323.5t51.5 390.5q0 70 -7.5 156.5t-7.5 108.5t6.5 28t22.5 6q37 0 76 -50.5t39 -146.5q0 -537 -196.5 -881t-450.5 -344 q-127 0 -210 111t-83 260.5zM446 1669q0 31 31 62.5t81 60.5t83 49.5t53.5 32.5t44 24.5t41 18.5t27.5 6t18.5 -2t15.5 -4t15 -8t13 -9.5t14.5 -13.5t13.5 -14q29 -37 35 -43q137 -164 137 -200t-39 -36t-69.5 29t-84 104.5t-63.5 90.5q-57 -31 -126 -83.5t-115 -86 t-69.5 -33.5t-40 12t-16.5 43z" />
<glyph unicode="&#xdc;" horiz-adv-x="1226" d="M203 391.5q0 149.5 88 496.5t88 494q0 37 5 48.5t27.5 11.5t56.5 -45t34 -117t-89 -412t-89 -458.5t51 -196.5t130 -78t166 81t163.5 213t128 323.5t51.5 390.5q0 70 -7.5 156.5t-7.5 108.5t6.5 28t22.5 6q37 0 76 -50.5t39 -146.5q0 -537 -196.5 -881t-450.5 -344 q-127 0 -210 111t-83 260.5zM559 1765.5q0 32.5 22.5 60t50 27.5t63.5 -68.5t36 -96.5q0 -51 -33 -52q-41 0 -90 48.5t-49 81zM838 1765.5q0 32.5 22.5 60t50 27.5t63.5 -68.5t36 -96.5q0 -51 -33 -52q-41 0 -90 48.5t-49 81z" />
<glyph unicode="&#xdd;" horiz-adv-x="1191" d="M207 1331q0 45 14.5 74t38 29t43 -64.5t52 -183.5t87 -225.5t128 -169t128.5 -62.5q35 0 136.5 176t204 352.5t143.5 176.5q61 0 61 -54q0 -29 -61.5 -132t-176 -290.5t-178 -306.5t-128 -239.5t-94.5 -176t-64 -116.5q-63 -104 -97 -105q-25 0 -24.5 36t18 85t62.5 139 q68 139 172 340q-121 23 -230.5 143t-172 277.5t-62.5 296.5zM719 1633.5q0 15.5 4 25.5t17.5 26.5t25.5 28.5q33 37 66.5 71t57 60.5t37 41t31.5 30.5q31 31 53.5 31t42 -30t19.5 -48.5t-2 -26.5t-9 -18t-14.5 -17.5t-22.5 -19.5t-26 -23q-43 -33 -67.5 -51t-42 -32.5 t-26.5 -21.5l-22.5 -17.5t-19.5 -15.5t-15 -11t-14.5 -8t-13.5 -6q-10 -4 -22.5 -4.5t-24.5 10t-12 26z" />
<glyph unicode="&#xde;" horiz-adv-x="995" d="M117 132q0 40 55 253q172 651 172 872q0 35 7 48.5t32 13.5t55.5 -42t30.5 -94.5t-20 -166.5q84 27 137 26q117 0 220 -90t103 -217q0 -158 -161.5 -264t-366.5 -106q-41 0 -84 6q-92 -336 -114.5 -336t-44 28.5t-21.5 68.5zM328 481q18 -2 55 -2q152 0 278.5 78 t126.5 165t-62 139t-138 52t-164 -41q-45 -203 -96 -391z" />
<glyph unicode="&#xdf;" horiz-adv-x="1181" d="M123 126q0 38 24 132q106 395 187 811q33 174 137 272.5t262 98.5q115 0 209 -109.5t94 -240.5q0 -86 -45 -149.5t-98 -91.5t-98 -51.5t-45 -36.5t46 -51t101 -81t101 -115t46 -145q0 -160 -121.5 -245t-273.5 -85q-76 0 -119 24.5t-43 59.5q0 31 45 31l111 -4 q100 0 189.5 63t89.5 156q0 57 -47.5 115.5t-103.5 98.5t-103 92t-47 91t45 71.5t100 59.5t100 77t45 109q0 96 -64.5 166t-142 70t-147.5 -75t-96 -200q-201 -1010 -277 -1009q-23 0 -42 26.5t-19 64.5z" />
<glyph unicode="&#xe0;" horiz-adv-x="915" d="M0 264q0 131 91 312.5t228.5 316.5t244 135t164.5 -88t58 -158.5t-45 -132.5q18 -20 19 -53q0 -131 -21.5 -248t-27.5 -186.5t-13.5 -98t-25.5 -28.5q-35 0 -45.5 66.5t-10.5 205.5q-63 -113 -160.5 -192.5t-190.5 -79.5t-179 71.5t-86 157.5zM127 262q0 -45 42 -75.5 t89 -30.5q106 0 217 137t168 338q6 35 37 43q-2 14 -2 68.5t-23.5 109.5t-70.5 55q-78 0 -187.5 -117.5t-189.5 -272.5t-80 -255zM481.5 1418q-0.5 24 22 52.5t42 28.5t29 -5t22.5 -17.5t24.5 -25.5t33 -36.5t38 -42t33.5 -37t27.5 -29t22.5 -23.5t18.5 -20.5t12.5 -15.5 t9 -13t6 -11t4 -11.5t1 -15.5t-13 -22.5t-27.5 -12.5t-35 13.5t-59.5 45t-56.5 45t-40 30t-33.5 25.5t-27.5 21.5t-23.5 20.5t-15 18q-14 14 -14.5 38z" />
<glyph unicode="&#xe1;" horiz-adv-x="915" d="M0 264q0 131 91 312.5t228.5 316.5t244 135t164.5 -88t58 -158.5t-45 -132.5q18 -20 19 -53q0 -131 -21.5 -248t-27.5 -186.5t-13.5 -98t-25.5 -28.5q-35 0 -45.5 66.5t-10.5 205.5q-63 -113 -160.5 -192.5t-190.5 -79.5t-179 71.5t-86 157.5zM127 262q0 -45 42 -75.5 t89 -30.5q106 0 217 137t168 338q6 35 37 43q-2 14 -2 68.5t-23.5 109.5t-70.5 55q-78 0 -187.5 -117.5t-189.5 -272.5t-80 -255zM696 1197q0 15 4.5 25.5t17.5 27t23 28.5q35 37 69 70.5t57.5 60.5t37 41t30.5 30.5t29.5 23.5t30 7t37 -29.5t19.5 -48t-2 -26.5t-9.5 -18.5 t-14.5 -17.5t-22.5 -19.5t-27.5 -20.5q-41 -35 -65.5 -53t-42 -32.5t-27 -21.5t-22.5 -17.5t-19 -15.5t-15.5 -11t-14.5 -8.5t-11 -4.5q-12 -6 -24.5 -6t-25 10.5t-12.5 25.5z" />
<glyph unicode="&#xe2;" horiz-adv-x="915" d="M0 264q0 131 91 312.5t228.5 316.5t244 135t164.5 -88t58 -158.5t-45 -132.5q18 -20 19 -53q0 -131 -21.5 -248t-27.5 -186.5t-13.5 -98t-25.5 -28.5q-35 0 -45.5 66.5t-10.5 205.5q-63 -113 -160.5 -192.5t-190.5 -79.5t-179 71.5t-86 157.5zM127 262q0 -45 42 -75.5 t89 -30.5q106 0 217 137t168 338q6 35 37 43q-2 14 -2 68.5t-23.5 109.5t-70.5 55q-78 0 -187.5 -117.5t-189.5 -272.5t-80 -255zM401 1233q0 31 31 62.5t81 60t83 49t53.5 33t44 25t41 18.5t27.5 6t18 -2t15.5 -4t15.5 -8.5t13 -9.5t14.5 -13t13.5 -16q29 -35 35 -41 q137 -164 137 -200t-39 -36t-69.5 28.5t-84 104.5t-63.5 90q-57 -31 -126 -83t-115 -85.5t-69.5 -33.5t-40 12t-16.5 43z" />
<glyph unicode="&#xe3;" horiz-adv-x="915" d="M0 264q0 131 91 312.5t228.5 316.5t244 135t164.5 -88t58 -158.5t-45 -132.5q18 -20 19 -53q0 -131 -21.5 -248t-27.5 -186.5t-13.5 -98t-25.5 -28.5q-35 0 -45.5 66.5t-10.5 205.5q-63 -113 -160.5 -192.5t-190.5 -79.5t-179 71.5t-86 157.5zM127 262q0 -45 42 -75.5 t89 -30.5q106 0 217 137t168 338q6 35 37 43q-2 14 -2 68.5t-23.5 109.5t-70.5 55q-78 0 -187.5 -117.5t-189.5 -272.5t-80 -255zM451 1210q0 66 74.5 139.5t148.5 73.5q78 0 125 -75q45 -76 86 -80q27 2 49 22.5t35 44.5q32 62 67 62t35 -56.5t-56.5 -119t-133.5 -62.5 q-98 0 -213 162q-43 -20 -76 -59t-54.5 -67t-41.5 -28q-45 0 -45 43z" />
<glyph unicode="&#xe4;" horiz-adv-x="915" d="M0 264q0 131 91 312.5t228.5 316.5t244 135t164.5 -88t58 -158.5t-45 -132.5q18 -20 19 -53q0 -131 -21.5 -248t-27.5 -186.5t-13.5 -98t-25.5 -28.5q-35 0 -45.5 66.5t-10.5 205.5q-63 -113 -160.5 -192.5t-190.5 -79.5t-179 71.5t-86 157.5zM127 262q0 -45 42 -75.5 t89 -30.5q106 0 217 137t168 338q6 35 37 43q-2 14 -2 68.5t-23.5 109.5t-70.5 55q-78 0 -187.5 -117.5t-189.5 -272.5t-80 -255zM514 1329q0 33 22.5 60.5t50 27.5t63.5 -68.5t36 -97.5q0 -51 -33 -51q-41 0 -90 48t-49 81zM793 1329q0 33 22.5 60.5t50 27.5t63.5 -68.5 t36 -97.5q0 -51 -33 -51q-41 0 -90 48t-49 81z" />
<glyph unicode="&#xe5;" horiz-adv-x="915" d="M0 264q0 131 91 312.5t228.5 316.5t244 135t164.5 -88t58 -158.5t-45 -132.5q18 -20 19 -53q0 -131 -21.5 -248t-27.5 -186.5t-13.5 -98t-25.5 -28.5q-35 0 -45.5 66.5t-10.5 205.5q-63 -113 -160.5 -192.5t-190.5 -79.5t-179 71.5t-86 157.5zM127 262q0 -45 42 -75.5 t89 -30.5q106 0 217 137t168 338q6 35 37 43q-2 14 -2 68.5t-23.5 109.5t-70.5 55q-78 0 -187.5 -117.5t-189.5 -272.5t-80 -255zM604 1291.5q0 70.5 53.5 138t121 67.5t107.5 -46t40 -116.5t-53.5 -138.5t-121 -68t-107.5 46.5t-40 117zM698 1301.5q0 -39.5 15.5 -62 t42 -22.5t50 30.5t23.5 71.5t-15 63.5t-42 22.5t-50.5 -32t-23.5 -71.5z" />
<glyph unicode="&#xe6;" horiz-adv-x="1492" d="M59 270q0 135 79 312.5t212 311.5t262 134q84 0 143.5 -53t80.5 -133q150 186 313 186q113 0 206 -107.5t93 -215t-108.5 -170t-248 -62.5t-298.5 39q-33 -96 -33 -182t57 -132t151.5 -46t201 38.5t120.5 38.5q37 0 37 -32q0 -41 -121 -101.5t-237.5 -60.5t-214 77.5 t-107.5 206.5q-90 -143 -168 -213.5t-172 -70.5t-171 70.5t-77 164.5zM180 262q0 -45 36 -75.5t75 -30.5q115 0 211 113.5t198 342.5q20 55 41 86q-3 209 -118 209q-94 0 -201 -118.5t-174.5 -271t-67.5 -255.5zM827 598q121 -29 238 -29t191.5 40t74.5 104.5t-55.5 132 t-114.5 67.5q-92 0 -183 -90t-151 -225z" />
<glyph unicode="&#xe7;" horiz-adv-x="864" d="M72 348q0 117 84 282t216 281.5t253 116.5q90 0 146 -64.5t56 -105.5t-24.5 -41t-76.5 44t-93 44q-82 0 -186.5 -100t-177 -239.5t-72.5 -226.5t48 -135t135 -48t162.5 24.5t120 48t64.5 23.5q29 0 29 -33q0 -43 -135.5 -113.5t-233.5 -70.5h-10q-16 -45 -51 -109h16 q66 0 124 -32.5t58 -75.5q0 -63 -65 -109q-117 -76 -293 -76q-61 0 -62 35q0 25 57.5 35t130.5 30.5t99 65.5q-8 20 -97 38t-89 40q0 25 29.5 86.5t39.5 89.5q-90 33 -146 105.5t-56 189.5z" />
<glyph unicode="&#xe8;" horiz-adv-x="878" d="M31 355.5q0 142.5 73.5 300t192.5 265t234.5 107.5t209 -107.5t93.5 -215t-109 -170t-250 -62.5t-297 39q-33 -104 -33 -186t57.5 -128t152 -46t201 38.5t120.5 38.5q37 0 37 -32q0 -41 -121 -101.5t-221 -60.5q-141 0 -240.5 89t-99.5 231.5zM213 598q119 -29 236.5 -29 t192.5 40t75 104.5t-55.5 132t-114.5 67.5q-92 0 -183.5 -90t-150.5 -225zM383 1423.5q0 18.5 22.5 47t42 28.5t28.5 -5t22.5 -17.5t25 -25.5t33 -36.5t37.5 -42t33.5 -37t28 -29t22.5 -23.5t18 -20.5t12.5 -15.5t9.5 -13t7 -11q4 -10 4 -23.5t-13.5 -26t-27.5 -12.5 t-34.5 13.5t-59.5 45t-56.5 45t-40 30t-33.5 25.5t-27.5 21.5t-23.5 20.5t-15.5 17.5t-11.5 17.5t-3 26.5z" />
<glyph unicode="&#xe9;" horiz-adv-x="878" d="M31 355.5q0 142.5 73.5 300t192.5 265t234.5 107.5t209 -107.5t93.5 -215t-109 -170t-250 -62.5t-297 39q-33 -104 -33 -186t57.5 -128t152 -46t201 38.5t120.5 38.5q37 0 37 -32q0 -41 -121 -101.5t-221 -60.5q-141 0 -240.5 89t-99.5 231.5zM213 598q119 -29 236.5 -29 t192.5 40t75 104.5t-55.5 132t-114.5 67.5q-92 0 -183.5 -90t-150.5 -225zM598 1197q0 15 4 25.5t17.5 27t23.5 28.5q35 37 68.5 70.5t57.5 60.5t37 41t30.5 30.5t30 23.5t29.5 7t36.5 -29.5t19.5 -48t-2 -26.5t-9 -18.5t-14 -17.5t-22.5 -19.5t-27.5 -20.5q-41 -35 -66 -53 t-42 -32.5t-26.5 -21.5t-22.5 -17.5t-19.5 -15.5t-15.5 -11t-14 -8.5t-12 -4.5q-12 -6 -24 -6t-24.5 10.5t-12.5 25.5z" />
<glyph unicode="&#xea;" horiz-adv-x="878" d="M31 355.5q0 142.5 73.5 300t192.5 265t234.5 107.5t209 -107.5t93.5 -215t-109 -170t-250 -62.5t-297 39q-33 -104 -33 -186t57.5 -128t152 -46t201 38.5t120.5 38.5q37 0 37 -32q0 -41 -121 -101.5t-221 -60.5q-141 0 -240.5 89t-99.5 231.5zM213 598q119 -29 236.5 -29 t192.5 40t75 104.5t-55.5 132t-114.5 67.5q-92 0 -183.5 -90t-150.5 -225zM303 1233q0 31 31 62.5t81 60t82.5 49t53 33t44 25t41 18.5t28 6t18.5 -2t15.5 -4t15.5 -8.5t13 -9.5t14.5 -13t13.5 -16q28 -35 34 -41q137 -164 137.5 -200t-38.5 -36t-70 28.5t-84 104.5t-63 90 q-57 -31 -126 -83t-115 -85.5t-69.5 -33.5t-40 12t-16.5 43z" />
<glyph unicode="&#xeb;" horiz-adv-x="878" d="M31 355.5q0 142.5 73.5 300t192.5 265t234.5 107.5t209 -107.5t93.5 -215t-109 -170t-250 -62.5t-297 39q-33 -104 -33 -186t57.5 -128t152 -46t201 38.5t120.5 38.5q37 0 37 -32q0 -41 -121 -101.5t-221 -60.5q-141 0 -240.5 89t-99.5 231.5zM213 598q119 -29 236.5 -29 t192.5 40t75 104.5t-55.5 132t-114.5 67.5q-92 0 -183.5 -90t-150.5 -225zM416 1331q0 33 22.5 60.5t50 27.5t63.5 -68.5t36 -97.5q0 -51 -33 -51q-41 0 -90 48t-49 81zM694 1331q0 33 22.5 60.5t50.5 27.5t63.5 -68.5t35.5 -97.5q0 -51 -32 -51q-41 0 -90.5 48t-49.5 81z " />
<glyph unicode="&#xec;" horiz-adv-x="462" d="M63 96.5q0 22.5 27 117.5t62.5 222t74.5 294t60.5 232.5t45 65.5t46 -27.5t22.5 -54.5q0 -137 -208 -796q-39 -115 -80 -115q-20 0 -35 19.5t-15 42zM150 1423.5q0 18.5 22.5 47t41.5 28.5t28.5 -5t23 -17.5t24.5 -25.5t32.5 -36.5t38 -42t34 -37t27.5 -29t22.5 -23.5 t18.5 -20.5t12 -15.5t9 -13t8 -11q4 -10 4 -23.5t-13.5 -26t-28 -12.5t-35 13.5t-59 45t-56 45t-40 30t-34 25.5t-28 21.5t-23.5 20.5t-15 17.5t-11 17.5t-3 26.5z" />
<glyph unicode="&#xed;" horiz-adv-x="462" d="M63 96.5q0 22.5 27 117.5t62.5 222t74.5 294t60.5 232.5t45 65.5t46 -27.5t22.5 -54.5q0 -137 -208 -796q-39 -115 -80 -115q-20 0 -35 19.5t-15 42zM362 1197q0 15 4.5 25.5t17.5 27t26 28.5q33 37 66.5 70.5t57 60.5t37 41t31.5 31q31 31 53.5 30.5t42 -30t19.5 -48 t-2 -26.5t-9.5 -18.5t-14.5 -17.5t-22.5 -19.5t-25.5 -20.5q-43 -35 -67.5 -53t-42 -32.5t-26.5 -21.5l-22.5 -17.5t-19.5 -15.5t-15.5 -11t-14.5 -8.5t-13 -4.5q-10 -6 -22.5 -6t-25 10.5t-12.5 25.5z" />
<glyph unicode="&#xee;" horiz-adv-x="462" d="M63 96.5q0 22.5 27 117.5t62.5 222t74.5 294t60.5 232.5t45 65.5t46 -27.5t22.5 -54.5q0 -137 -208 -796q-39 -115 -80 -115q-20 0 -35 19.5t-15 42zM68 1233q0 31 30.5 62.5t80.5 60t83 49t53.5 33t44 25t41 18.5t27.5 6t18.5 -2t15.5 -4t15 -8.5t13.5 -9.5t14.5 -13 t13 -16q29 -35 35 -41q137 -164 137 -200t-39 -36t-69.5 28.5t-84 104.5t-63.5 90q-57 -31 -125.5 -83t-115 -85.5t-70 -33.5t-39.5 12t-16 43z" />
<glyph unicode="&#xef;" horiz-adv-x="462" d="M63 96.5q0 22.5 27 117.5t62.5 222t74.5 294t60.5 232.5t45 65.5t46 -27.5t22.5 -54.5q0 -137 -208 -796q-39 -115 -80 -115q-20 0 -35 19.5t-15 42zM180 1331q0 33 22.5 60.5t50.5 27.5t63.5 -68.5t35.5 -97.5q0 -51 -33 -51q-41 0 -90 48t-49 81zM459 1331 q0 33 22.5 60.5t50 27.5t63.5 -68.5t36 -97.5q0 -51 -33 -51q-41 0 -90 48t-49 81z" />
<glyph unicode="&#xf0;" d="M90 358q0 238 133 419t330 181q88 0 164 -84q-12 143 -58 250q-176 -74 -218 -73.5t-42 29t49 55t170 73.5q-80 121 -145 121q-18 0 -50 -17.5t-52 -17.5q-31 0 -31 38t42 74t87 36q150 0 262 -187q164 70 195.5 70t31.5 -27q0 -37 -188 -122q74 -174 74 -363.5t-76 -369 t-200 -294t-236.5 -114.5t-177 85t-64.5 238zM217 315q0 -68 29.5 -119t72.5 -51q135 0 259 206t139 411q-78 94 -148 94q-137 0 -244.5 -151.5t-107.5 -389.5z" />
<glyph unicode="&#xf1;" horiz-adv-x="1067" d="M53 114.5q0 20.5 17 73.5q68 217 86 301q61 262 61 445q0 96 37 96q29 0 57.5 -38t28.5 -101.5t-44 -258t-97 -339.5q238 408 369 571.5t223 163.5q53 0 117.5 -79t64.5 -165q0 -129 -66.5 -332.5t-117 -310t-93.5 -106.5q-33 0 -32.5 34.5t17.5 89t52 148.5 q121 322 121 469q0 47 -27.5 81t-47 34t-36 -7t-36 -23.5t-37 -34t-43 -50.5t-44 -58.5t-50 -71.5t-52.5 -77q-82 -129 -123 -189.5t-100 -156.5q-117 -188 -131 -188q-23 0 -48.5 29.5t-25.5 50zM358 1210q0 66 75 139.5t149 73.5q78 0 123 -75q47 -76 88 -80q27 2 49 22.5 t35 44.5q33 61 67.5 61.5t34.5 -56t-56.5 -119t-134.5 -62.5q-98 0 -213 162q-43 -20 -75.5 -59t-54.5 -67t-42 -28q-45 0 -45 43z" />
<glyph unicode="&#xf2;" d="M92 365.5q0 146.5 67.5 301t185.5 258t237.5 103.5t188.5 -101.5t69 -236.5q0 -242 -158 -448.5t-365 -206.5q-102 0 -163.5 92t-61.5 238.5zM215 328q0 -154 104 -191q115 12 209.5 109.5t142.5 220.5t48 217t-32 160.5t-85 91.5q-170 -33 -278.5 -219.5t-108.5 -388.5z M389 1423.5q0 18.5 22.5 47t42 28.5t29 -5t22.5 -17.5t24.5 -25.5t33 -36.5t37.5 -42t33.5 -37t28 -29t22.5 -23.5t18.5 -20.5t12.5 -15.5t9 -13t5 -11q6 -10 6 -23.5t-13 -26t-27.5 -12.5t-35 13.5t-59.5 45t-56.5 45t-40 30t-33.5 25.5t-27.5 21.5t-23.5 20.5t-15.5 17.5 t-11.5 17.5t-3 26.5z" />
<glyph unicode="&#xf3;" d="M92 365.5q0 146.5 67.5 301t185.5 258t237.5 103.5t188.5 -101.5t69 -236.5q0 -242 -158 -448.5t-365 -206.5q-102 0 -163.5 92t-61.5 238.5zM215 328q0 -154 104 -191q115 12 209.5 109.5t142.5 220.5t48 217t-32 160.5t-85 91.5q-170 -33 -278.5 -219.5t-108.5 -388.5z M604 1197q0 15 4 25.5t17.5 27t25.5 28.5q33 37 67 70.5t57.5 60.5t36.5 41t32 31q31 31 53.5 30.5t41.5 -30t19 -48t-2 -26.5t-9 -18.5t-14 -17.5t-22.5 -19.5t-25.5 -20.5q-43 -35 -67.5 -53t-42 -32.5t-27 -21.5t-22.5 -17.5t-19.5 -15.5t-15.5 -11t-14 -8.5t-13 -4.5 q-10 -6 -22.5 -6t-25 10.5t-12.5 25.5z" />
<glyph unicode="&#xf4;" d="M92 365.5q0 146.5 67.5 301t185.5 258t237.5 103.5t188.5 -101.5t69 -236.5q0 -242 -158 -448.5t-365 -206.5q-102 0 -163.5 92t-61.5 238.5zM215 328q0 -154 104 -191q115 12 209.5 109.5t142.5 220.5t48 217t-32 160.5t-85 91.5q-170 -33 -278.5 -219.5t-108.5 -388.5z M309 1233q0 31 31 62.5t81 60t83 49t53.5 33t44 25t40.5 18.5t27.5 6t18.5 -2t15.5 -4t15.5 -8.5t13 -9.5t14.5 -13t13.5 -16q29 -35 35 -41q137 -164 137 -200t-39 -36t-69.5 28.5t-84 104.5t-63.5 90q-57 -31 -126 -83t-115 -85.5t-69.5 -33.5t-40 12t-16.5 43z" />
<glyph unicode="&#xf5;" d="M92 365.5q0 146.5 67.5 301t185.5 258t237.5 103.5t188.5 -101.5t69 -236.5q0 -242 -158 -448.5t-365 -206.5q-102 0 -163.5 92t-61.5 238.5zM215 328q0 -154 104 -191q115 12 209.5 109.5t142.5 220.5t48 217t-32 160.5t-85 91.5q-170 -33 -278.5 -219.5t-108.5 -388.5z M358 1210q0 66 75 139.5t149 73.5q78 0 123 -75q47 -76 88 -80q27 2 49 22.5t35 44.5q33 61 67.5 61.5t34.5 -56t-56.5 -119t-134.5 -62.5q-98 0 -213 162q-43 -20 -75.5 -59t-54 -67t-42.5 -28q-45 0 -45 43z" />
<glyph unicode="&#xf6;" d="M92 365.5q0 146.5 67.5 301t185.5 258t237.5 103.5t188.5 -101.5t69 -236.5q0 -242 -158 -448.5t-365 -206.5q-102 0 -163.5 92t-61.5 238.5zM215 328q0 -154 104 -191q115 12 209.5 109.5t142.5 220.5t48 217t-32 160.5t-85 91.5q-170 -33 -278.5 -219.5t-108.5 -388.5z M422 1331q0 33 22.5 60.5t50 27.5t63.5 -68.5t36 -97.5q0 -51 -33 -51q-41 0 -90 48t-49 81zM700 1331q0 33 22.5 60.5t50.5 27.5t63.5 -68.5t35.5 -97.5q0 -51 -32 -51q-41 0 -90.5 48t-49.5 81z" />
<glyph unicode="&#xf7;" horiz-adv-x="1228" d="M104 684q0 35 52 35q143 -4 282.5 -4t358.5 19.5t302 19.5t83 -37q0 -51 -301 -90t-666 -39q-41 0 -76 30.5t-35 65.5zM426 265q0 38 27.5 74t57.5 36t73 -92.5t43 -139.5q0 -8 -14.5 -19t-26.5 -11q-45 0 -102.5 57t-57.5 95zM582 1070q0 38 27.5 74t57 36t72.5 -92.5 t43 -139.5q0 -8 -14.5 -19t-26.5 -11q-45 0 -102 57t-57 95z" />
<glyph unicode="&#xf8;" horiz-adv-x="940" d="M53 74q0 20 70 116q-31 82 -31 168q0 152 69.5 307.5t191.5 259t255 103.5q90 0 154 -70q80 74 137 74q31 0 31 -28q0 -18 -72 -101l-35 -41q33 -82 33 -172q0 -154 -72.5 -305.5t-197.5 -250.5t-262 -99q-84 0 -148 69q-57 -70 -82 -69q-41 0 -41 39zM209 299 q215 252 331.5 397.5t147.5 180.5q-35 45 -76 59q-170 -25 -286.5 -218t-116.5 -394v-25zM246 188q29 -41 76 -55q172 12 294.5 204t122.5 368q0 29 -6 57q-141 -164 -487 -574z" />
<glyph unicode="&#xf9;" horiz-adv-x="980" d="M39 266q0 127 56.5 312.5t127 317.5t111.5 132q23 0 40 -23.5t17 -47t-56 -136t-113.5 -272.5t-57.5 -293q0 -47 29.5 -79t72.5 -32q102 0 222 159t200 343q80 180 115 336q2 8 2 12q0 33 31 33q25 0 51 -38t26 -79q0 -12 -223 -790q-25 -86 -57 -86q-45 0 -45 67.5 t67 280.5q-84 -162 -191.5 -255t-201.5 -93t-158.5 72.5t-64.5 158.5zM389 1423.5q0 18.5 22.5 47t42 28.5t29 -5t22.5 -17.5t24.5 -25.5t33 -36.5t37.5 -42t33.5 -37t28 -29t22.5 -23.5t18.5 -20.5t12.5 -15.5t9 -13t5 -11q6 -10 6 -23.5t-13 -26t-27.5 -12.5t-35 13.5 t-59.5 45t-56.5 45t-40 30t-33.5 25.5t-27.5 21.5t-23.5 20.5t-15.5 17.5t-11.5 17.5t-3 26.5z" />
<glyph unicode="&#xfa;" horiz-adv-x="980" d="M39 266q0 127 56.5 312.5t127 317.5t111.5 132q23 0 40 -23.5t17 -47t-56 -136t-113.5 -272.5t-57.5 -293q0 -47 29.5 -79t72.5 -32q102 0 222 159t200 343q80 180 115 336q2 8 2 12q0 33 31 33q25 0 51 -38t26 -79q0 -12 -223 -790q-25 -86 -57 -86q-45 0 -45 67.5 t67 280.5q-84 -162 -191.5 -255t-201.5 -93t-158.5 72.5t-64.5 158.5zM604 1197q0 15 4 25.5t17.5 27t25.5 28.5q33 37 67 70.5t57.5 60.5t36.5 41t30.5 30.5t30 23.5t30 7t36.5 -29.5t19 -48t-2 -26.5t-9 -18.5t-14 -17.5t-22.5 -19.5t-25.5 -20.5q-43 -35 -67.5 -53 t-42 -32.5t-27 -21.5t-22.5 -17.5t-19.5 -15.5t-15.5 -11t-14 -8.5t-13 -4.5q-10 -6 -22.5 -6t-25 10.5t-12.5 25.5z" />
<glyph unicode="&#xfb;" horiz-adv-x="980" d="M39 266q0 127 56.5 312.5t127 317.5t111.5 132q23 0 40 -23.5t17 -47t-56 -136t-113.5 -272.5t-57.5 -293q0 -47 29.5 -79t72.5 -32q102 0 222 159t200 343q80 180 115 336q2 8 2 12q0 33 31 33q25 0 51 -38t26 -79q0 -12 -223 -790q-25 -86 -57 -86q-45 0 -45 67.5 t67 280.5q-84 -162 -191.5 -255t-201.5 -93t-158.5 72.5t-64.5 158.5zM309 1233q0 31 31 62.5t81 60t83 49t53.5 33t44 25t40.5 18.5t27.5 6t18.5 -2t15.5 -4t15.5 -8.5t13 -9.5t14.5 -13t13.5 -16q29 -35 35 -41q137 -164 137 -200t-39 -36t-69.5 28.5t-84 104.5t-63.5 90 q-57 -31 -126 -83t-115 -85.5t-69.5 -33.5t-40 12t-16.5 43z" />
<glyph unicode="&#xfc;" horiz-adv-x="980" d="M39 266q0 127 56.5 312.5t127 317.5t111.5 132q23 0 40 -23.5t17 -47t-56 -136t-113.5 -272.5t-57.5 -293q0 -47 29.5 -79t72.5 -32q102 0 222 159t200 343q80 180 115 336q2 8 2 12q0 33 31 33q25 0 51 -38t26 -79q0 -12 -223 -790q-25 -86 -57 -86q-45 0 -45 67.5 t67 280.5q-84 -162 -191.5 -255t-201.5 -93t-158.5 72.5t-64.5 158.5zM422 1331q0 33 22.5 60.5t50 27.5t63.5 -68.5t36 -97.5q0 -51 -33 -51q-41 0 -90 48t-49 81zM700 1331q0 33 22.5 60.5t50.5 27.5t63.5 -68.5t35.5 -97.5q1 -51 -32 -51q-41 0 -90.5 48t-49.5 81z" />
<glyph unicode="&#xfd;" horiz-adv-x="905" d="M-41 -281q0 18 16.5 41t28.5 23t49 -43q109 -131 211 -131q39 0 75 34.5t75 125.5q57 127 172 471q-139 -205 -301 -205q-94 0 -158 72.5t-64 181t56.5 293t126 315.5t110.5 131q20 0 40 -23.5t20 -49t-56.5 -138t-114 -271.5t-57.5 -290q0 -47 30 -79t73 -32 q76 0 158.5 84t152.5 217q125 246 211 521q10 55 19.5 58t17.5 3q27 0 53.5 -36t26.5 -65.5t-18.5 -88t-62.5 -184.5t-81 -228t-111.5 -308t-119.5 -337q-96 -270 -269 -270q-104 0 -206.5 66.5t-102.5 141.5zM651 1197q0 15 4 25.5t17.5 27t23.5 28.5q35 37 69 70.5 t57.5 60.5t36.5 41t30.5 30.5t30 23.5t30 7t37 -29.5t19.5 -48t-2.5 -26.5t-9.5 -18.5t-14 -17.5t-22.5 -19.5t-27.5 -20.5q-41 -35 -65.5 -53t-42 -32.5t-27 -21.5t-22.5 -17.5t-19 -15.5t-15.5 -11t-14.5 -8.5t-11 -4.5q-12 -6 -24.5 -6t-25 10.5t-12.5 25.5z" />
<glyph unicode="&#xfe;" horiz-adv-x="1077" d="M2 -312q0 40 88 396q258 1061 258 1315q0 35 7 48t32 13t53.5 -44t28.5 -118t-49 -350q135 72 251.5 72t224.5 -116t108 -248t-97.5 -242.5t-230.5 -167t-258 -56.5q-41 0 -87 17.5t-69 48.5q-172 -666 -191.5 -666t-44 29t-24.5 69zM285 346q77 -39 108 -39 q174 0 332 106.5t158 231.5q0 102 -64.5 174t-165 72t-262.5 -92q-25 -125 -51.5 -230.5t-54.5 -222.5z" />
<glyph unicode="&#xff;" horiz-adv-x="905" d="M-41 -281q0 18 16.5 41t28.5 23t49 -43q109 -131 211 -131q39 0 75 34.5t75 125.5q57 127 172 471q-139 -205 -301 -205q-94 0 -158 72.5t-64 181t56.5 293t126 315.5t110.5 131q20 0 40 -23.5t20 -49t-56.5 -138t-114 -271.5t-57.5 -290q0 -47 30 -79t73 -32 q76 0 158.5 84t152.5 217q125 246 211 521q10 55 19.5 58t17.5 3q27 0 53.5 -36t26.5 -65.5t-18.5 -88t-62.5 -184.5t-81 -228t-111.5 -308t-119.5 -337q-96 -270 -269 -270q-104 0 -206.5 66.5t-102.5 141.5zM469 1329q0 33 22.5 60.5t50 27.5t63.5 -68.5t36 -97.5 q0 -51 -33 -51q-41 0 -90 48t-49 81zM748 1329q0 33 22.5 60.5t50 27.5t63.5 -68.5t36 -97.5q0 -51 -33 -51q-41 0 -90 48t-49 81z" />
<glyph unicode="&#x152;" horiz-adv-x="1914" d="M135 422q0 244 111.5 487.5t272.5 392t304 148.5q100 0 182 -63.5t134 -169.5q4 66 4 96t6 40.5t6 12.5t7 10t22 15q94 45 439 45t345 -39q0 -29 -72.5 -40t-179.5 -20q-133 -10 -154.5 -11t-63.5 -4t-133 -15.5t-101 -14.5v-20q0 -135 -76 -410q-2 -18 -10 -59 q14 -2 88.5 -2t190.5 10t184.5 10t68.5 -18q0 -107 -549 -107h-16q-16 -45 -21 -53q-113 -383 -112.5 -422t20 -56.5t47.5 -17.5q260 0 543 82q96 27 111 27q25 0 24 -37q0 -55 -226 -124.5t-417 -69.5q-94 0 -161.5 48t-67.5 113q0 35 10 97q-223 -244 -449 -244 q-127 0 -219 126t-92 257zM258 450.5q0 -139.5 63.5 -218t143.5 -78.5q111 0 253 130t243.5 316t101.5 350t-74 270.5t-151.5 106.5t-175 -81t-187.5 -203.5t-153.5 -287.5t-63.5 -304.5z" />
<glyph unicode="&#x153;" horiz-adv-x="1855" d="M92 365.5q0 146.5 67.5 301t185.5 258t247 103.5q86 0 146.5 -63.5t86.5 -161.5q162 225 342 225q113 0 206 -107.5t93 -215t-108.5 -170t-254 -62.5t-288.5 37q-37 -90 -37 -178t56.5 -134t151.5 -46t201.5 38.5t121.5 38.5q37 0 37 -32q0 -41 -121 -101.5t-226.5 -60.5 t-193.5 55t-123 152q-158 -207 -365 -207q-102 0 -163.5 92t-61.5 238.5zM215 328q0 -154 104 -191q166 18 283 198.5t117 362.5q0 80 -32 146.5t-85 91.5q-170 -33 -278.5 -219.5t-108.5 -388.5zM844 598q109 -29 232.5 -29t198.5 40t75 104.5t-55.5 132t-114.5 67.5 q-92 0 -183.5 -90t-152.5 -225z" />
<glyph unicode="&#x178;" horiz-adv-x="1191" d="M207 1331q0 45 14.5 74t38 29t43 -64.5t52 -183.5t87 -225.5t128 -169t128.5 -62.5q35 0 136.5 176t204 352.5t143.5 176.5q61 0 61 -54q0 -29 -61.5 -132t-176 -290.5t-178 -306.5t-128 -239.5t-94.5 -176t-64 -116.5q-63 -104 -97 -105q-25 0 -24.5 36t18 85t62.5 139 q68 139 172 340q-121 23 -230.5 143t-172 277.5t-62.5 296.5zM537 1765.5q0 32.5 22.5 60t50 27.5t63.5 -68.5t36 -96.5q0 -51 -33 -52q-41 0 -90 48.5t-49 81zM815 1765.5q0 32.5 22.5 60t50 27.5t63.5 -68.5t36 -96.5q0 -51 -33 -52q-41 0 -90 48.5t-49 81z" />
<glyph unicode="&#x2c6;" horiz-adv-x="663" d="M20 1233q0 31 31 62.5t81 60t83 49t53.5 33t44 25t41 18.5t27.5 6t18.5 -2t15.5 -4t15 -8.5t13.5 -9.5t14.5 -13t13 -16q29 -35 35 -41q137 -164 137 -200t-39 -36t-69.5 28.5t-84 104.5t-63.5 90q-57 -31 -125.5 -83t-115 -85.5t-70 -33.5t-40 12t-16.5 43z" />
<glyph unicode="&#x2dc;" horiz-adv-x="661" d="M20 1210q0 66 75 139.5t149 73.5q78 0 125 -75q45 -76 86 -80q27 2 49 22.5t35 44.5q33 61 67.5 61.5t34.5 -56t-56.5 -119t-133.5 -62.5q-98 0 -213 162q-43 -20 -76 -59t-54.5 -67t-41.5 -28q-46 0 -46 43z" />
<glyph unicode="&#x2000;" horiz-adv-x="974" />
<glyph unicode="&#x2001;" horiz-adv-x="1948" />
<glyph unicode="&#x2002;" horiz-adv-x="974" />
<glyph unicode="&#x2003;" horiz-adv-x="1948" />
<glyph unicode="&#x2004;" horiz-adv-x="649" />
<glyph unicode="&#x2005;" horiz-adv-x="487" />
<glyph unicode="&#x2006;" horiz-adv-x="324" />
<glyph unicode="&#x2007;" horiz-adv-x="324" />
<glyph unicode="&#x2008;" horiz-adv-x="243" />
<glyph unicode="&#x2009;" horiz-adv-x="389" />
<glyph unicode="&#x200a;" horiz-adv-x="108" />
<glyph unicode="&#x2010;" horiz-adv-x="860" d="M113 582q0 39 226 81t334.5 42t108.5 -41q0 -25 -50 -39.5t-285.5 -60.5t-259 -46t-49 22.5t-25.5 41.5z" />
<glyph unicode="&#x2011;" horiz-adv-x="860" d="M113 582q0 39 226 81t334.5 42t108.5 -41q0 -25 -50 -39.5t-285.5 -60.5t-259 -46t-49 22.5t-25.5 41.5z" />
<glyph unicode="&#x2012;" horiz-adv-x="860" d="M113 582q0 39 226 81t334.5 42t108.5 -41q0 -25 -50 -39.5t-285.5 -60.5t-259 -46t-49 22.5t-25.5 41.5z" />
<glyph unicode="&#x2013;" horiz-adv-x="1234" d="M164 580q-2 41 312.5 101t547.5 60q111 0 111 -43q0 -29 -107 -47q-199 -35 -299 -48t-213 -34.5t-187.5 -36t-97 -14.5t-45 18.5t-22.5 43.5z" />
<glyph unicode="&#x2014;" horiz-adv-x="1820" d="M162 590q0 33 175 64.5t520 54t771 22.5q133 0 133 -47q0 -27 -116.5 -39t-406.5 -25.5t-451.5 -25.5t-358.5 -44t-211 -32t-34.5 23.5t-20.5 48.5z" />
<glyph unicode="&#x2018;" horiz-adv-x="516" d="M92 1331q0 127 120 243t185 116q37 0 37 -25q0 -27 -102 -109q-39 -29 -72 -76.5t-33 -93t18.5 -67t41.5 -29.5q61 -16 61 -57q0 -31 -26.5 -52.5t-76.5 -21.5t-101.5 47t-51.5 125z" />
<glyph unicode="&#x2019;" horiz-adv-x="514" d="M82 1181.5q0 22.5 51 63.5t103.5 99.5t52.5 110.5t-18.5 73.5t-41.5 27.5q-61 18 -61 60q0 31 26.5 52.5t77 21.5t100.5 -47t50 -125q0 -127 -119 -243t-184 -116q-37 0 -37 22.5z" />
<glyph unicode="&#x201a;" horiz-adv-x="536" d="M0 -286.5q0 20.5 26.5 54t59.5 66.5t59.5 87t26.5 110q0 33 -42 57.5t-42 49t22.5 57t51.5 32.5q55 0 98 -49t43 -117q0 -113 -102.5 -240.5t-169.5 -127.5q-31 0 -31 20.5z" />
<glyph unicode="&#x201c;" horiz-adv-x="878" d="M92 1331q0 127 109.5 243t175.5 116q35 0 35 -29q0 -18 -41 -64q-123 -131 -123 -217q0 -51 23.5 -93t23.5 -64q0 -63 -68 -64q-57 0 -96 48t-39 124zM485 1331q0 119 96.5 229.5t180.5 110.5q35 0 35 -28.5t-56 -79.5q-102 -100 -102 -183q0 -45 23.5 -88t23.5 -71 q0 -61 -65 -62q-57 0 -96.5 48t-39.5 124z" />
<glyph unicode="&#x201d;" horiz-adv-x="878" d="M82 1206q0 20 39 60q119 123 119 202q0 45 -23.5 88t-23.5 72q0 61 65 62q57 0 96 -48t39 -124q0 -119 -96 -229.5t-180 -110.5q-35 0 -35 28zM467 1188q0 18 41 61q123 133 123 219q0 51 -23.5 93.5t-23.5 64.5q0 63 67 64q57 0 96 -48t39 -124q0 -127 -109.5 -243 t-174.5 -116q-35 0 -35 29z" />
<glyph unicode="&#x201e;" horiz-adv-x="899" d="M0 -286.5q0 20.5 26.5 54t59.5 66.5t59.5 87t26.5 110q0 33 -42 57.5t-42 49t22.5 57t51.5 32.5q55 0 98 -49t43 -117q0 -113 -102.5 -240.5t-169.5 -127.5q-31 0 -31 20.5zM362 -286.5q0 20.5 27 54t59.5 66.5t59.5 87t27 110q0 33 -42 57.5t-42 49t22.5 57t50.5 32.5 q55 0 98.5 -49t43.5 -117q0 -113 -102.5 -240.5t-170.5 -127.5q-31 0 -31 20.5z" />
<glyph unicode="&#x2022;" horiz-adv-x="485" d="M133 679q0 48 34 91t70.5 43t90 -114.5t53.5 -172.5q0 -8 -17.5 -22.5t-33.5 -14.5q-55 0 -126 71t-71 119z" />
<glyph unicode="&#x2026;" horiz-adv-x="1222" d="M139 142q0 38 28 73t57.5 35t72.5 -92t43 -140q0 -8 -14.5 -19t-26.5 -11q-45 0 -102.5 58t-57.5 96zM510 142q0 38 27.5 73t57.5 35t72 -92t42 -140q0 -8 -14.5 -19t-26.5 -11q-45 0 -101.5 58t-56.5 96zM881 142q0 38 27.5 73t57 35t71.5 -92t42 -140q0 -8 -13.5 -19 t-27.5 -11q-45 0 -101 58t-56 96z" />
<glyph unicode="&#x202f;" horiz-adv-x="389" />
<glyph unicode="&#x2039;" horiz-adv-x="1148" d="M131 623q0 27 23.5 64.5t48.5 55.5q92 72 334.5 171.5t328.5 99.5q37 0 59.5 -16.5t22.5 -28t-2 -16.5t-7 -9t-9 -7t-12.5 -6t-14.5 -5t-16 -5t-113.5 -36t-300.5 -117t-197 -131q0 -35 288 -163t288 -155q0 -33 -72.5 -32.5t-360.5 136.5t-288 200z" />
<glyph unicode="&#x203a;" horiz-adv-x="1196" d="M248 303q0 31 311 180.5t311 169.5q0 47 -157.5 133t-261 116t-103.5 50q0 14 22.5 38t43.5 24q74 -2 214 -61.5t259 -149.5t119 -162q0 -35 -27 -61q-66 -61 -330 -179t-356 -118q-45 0 -45 20z" />
<glyph unicode="&#x205f;" horiz-adv-x="487" />
<glyph unicode="&#x20ac;" horiz-adv-x="1044" d="M41 463q0 27 178 57q20 96 78 219q-57 -8 -91 -8t-56.5 24.5t-22.5 45.5q0 35 235 57q121 197 287 329t318 132q49 0 98 -46t49 -85t-27 -39q-14 0 -54 20.5t-72 20.5q-86 0 -211 -91t-230 -229q174 10 322.5 10.5t148.5 -55.5q0 -23 -86 -34q-156 -20 -463 -37 q-63 -106 -90 -213q315 43 436 43t121 -43q0 -25 -88 -42.5t-434 -64.5l-55 -8v-27q0 -100 65.5 -167.5t162.5 -67.5t180 24.5t132 53.5q135 80 162 80t27 -33q0 -57 -174 -155.5t-322.5 -98.5t-255 104.5t-106.5 249.5v19q-66 -10 -90.5 -10.5t-48 23t-23.5 42.5z" />
<glyph unicode="&#x2122;" horiz-adv-x="1515" d="M111 1300q0 12 54 15.5t204 3.5q244 0 243 -59q0 -18 -67 -19l-137 6q-4 -78 -76 -295q-8 -29 -13.5 -45t-13.5 -39.5t-13 -38t-11 -26.5q-12 -27 -23.5 -27t-27 13.5t-15.5 33t48 188t56 236.5l-157 -6q-20 0 -35.5 20.5t-15.5 38.5zM623 832.5q0 19.5 55 213t55 246.5 q0 27 33 27q14 0 32.5 -17.5t23.5 -53.5t108 -238q33 37 72.5 80t63.5 69.5t50.5 55t43 45t31.5 31t25.5 20.5t22.5 6t39 -15.5t27 -33t-46.5 -166t-60.5 -211t-24.5 -89t-22.5 -26.5t-26.5 14.5t-14.5 46t23.5 137t50.5 191.5q-176 -195 -207 -219q-70 -53 -103 6 q-31 49 -83 170q-8 -29 -29 -87t-29 -84.5t-17 -59.5t-14.5 -49.5l-11.5 -34.5q-10 -31 -19 -31t-28.5 18.5t-19.5 38z" />
<glyph unicode="&#x25fc;" horiz-adv-x="1024" d="M0 0v1024h1024v-1024h-1024z" />
</font>
</defs>
</svg>
